<?xml version="1.0" standalone="no"?>
<!DOCTYPE svg PUBLIC "-//W3C//DTD SVG 1.1//EN" "http://www.w3.org/Graphics/SVG/1.1/DTD/svg11.dtd" >
<svg>
<metadata>
Created by FontForge 20090914 at Thu Jun 14 09:26:19 2018
 By www-data
www.creativemarket.com/vuuuds
diekave@gmail.com
Copyright (c) 2017, Agung Syaifudin
</metadata>
<defs>
<font id="GeorgiaScript" horiz-adv-x="127" >
  <font-face 
    font-family="Georgia Script"
    font-weight="400"
    font-stretch="normal"
    units-per-em="1000"
    panose-1="3 0 5 3 0 0 0 0 0 0"
    ascent="800"
    descent="-200"
    x-height="188.999"
    cap-height="757"
    bbox="-244.5 -527.75 828.003 862.167"
    underline-thickness="50"
    underline-position="-100"
    unicode-range="U+0020-U+E060"
  />
<missing-glyph horiz-adv-x="364" 
d="M33 0v666h265v-666h-265zM66 33h199v600h-199v-600z" />
    <glyph glyph-name="ab" unicode="ab" horiz-adv-x="511" 
d="M140 206v1v-1zM49 193c-4 0 -7.49902 -0.333984 -10.499 -1.00098l-11.5 -2.5c-4.66699 -1 -8 -2.66699 -10 -5s-2.66699 -5.16602 -2 -8.49902l1 -1c3.33301 -3.33301 10.333 -4 21 -2c12 2 25.333 6 40 12c1.33301 0 2.66602 0.333008 3.99902 1
c-5.33301 4.66699 -16 7 -32 7zM338.001 523.999c-50 -71.333 -79.335 -166.669 -88.002 -286.002c52.667 60.667 92.334 118 119.001 172c14 28.667 24 55 30 79c7.33301 26 9.33301 46.667 6 62c-0.666992 8.66699 -3.5 13.834 -8.5 15.501
s-10.167 1.33398 -15.5 -0.999023s-10.666 -5.83301 -15.999 -10.5c-8 -6.66699 -17 -17 -27 -31zM320.999 80.9961c22 16 37.333 41.001 46 75.001h-1c-26 -14 -44 -30.333 -54 -49c-7.33301 -17.333 -8.33301 -27.333 -3 -30
c2.66699 -2.66699 6.66699 -1.33398 12 3.99902zM385.999 168.997c34 12.667 76.6709 18.333 128.004 17c3.33301 0 5 -1.66699 5 -5s-1.66699 -5 -5 -5c-50 4 -93 -1 -129 -15c-3.33301 -18.667 -10.166 -36.167 -20.499 -52.5s-22.5 -29.5 -36.5 -39.5
c-2.66699 -2 -6.16699 -3.5 -10.5 -4.5s-8.5 -0.166992 -12.5 2.5c-10 7.33301 -9.66699 21 1 41c11.333 20.667 30.666 37.667 57.999 51c0.666992 0 1.66699 0.333008 3 1s2.33301 1.33398 3 2.00098c6 28.667 0.333008 44 -17 46c-20 1.33301 -40 -9.66699 -60 -33
c-17.333 -20 -30.333 -41 -39 -63c-1.33301 -4 -3.66602 -4 -6.99902 0c-4 34 -5.66699 68.667 -5 104c-10 -10.667 -26.667 -25.667 -50 -45c-15.333 -12 -27.666 -20.333 -36.999 -25c-13.333 -4.66699 -22.833 -4.16699 -28.5 1.5s-8 13 -7 22s3.83301 18.5 8.5 28.5
c-2 -1.33301 -4.66699 -2.66602 -8 -3.99902c-35.333 -17.333 -62.333 -28 -81 -32c-17.333 -2.66699 -28.666 0 -33.999 8l-1 1l-1 1l-1 2c-4.66699 10.667 -0.833984 19.5 11.499 26.5s27 10.167 44 9.5s29.167 -4.66699 36.5 -12c0.666992 0 1.66699 -1 3 -3
c20 10 31 15.667 33 17l1 1h1v1c-1.33301 0.666992 -1.33301 1 0 1c5.33301 -0.666992 8 -2.33398 8 -5.00098v-1v-1l-1 -1h1c-0.666992 -2 -1.83398 -5.16699 -3.50098 -9.5s-2.83398 -8 -3.50098 -11s-1.5 -6.5 -2.5 -10.5s-1.5 -7.16699 -1.5 -9.5
s0.333008 -4.83301 1 -7.5s2.16699 -4.66699 4.5 -6s5.16602 -2 8.49902 -2c10 2.66699 24.333 11.667 43 27c19.333 16 38 33.667 56 53c2.66699 82 19 155.333 49 220c21.333 50 44.666 86.333 69.999 109c4.66699 4 9.66699 7.33301 15 10s10.833 4.33398 16.5 5.00098
s10.667 -0.833008 15 -4.5s7.16602 -9.83398 8.49902 -18.501c3.33301 -18 1.33301 -40 -6 -66c-11.333 -48 -30.333 -92.167 -57 -132.5s-60.667 -83.5 -102 -129.5c-0.666992 -33.333 0.666016 -66 3.99902 -98c18.667 40 39 67.333 61 82
c13.333 9.33301 26.333 13.666 39 12.999c12 0 20.5 -5 25.5 -15s6.83301 -22.333 5.5 -37z" />
    <glyph glyph-name="ad" unicode="ad" horiz-adv-x="338" 
d="M62 202c-1.33301 4.66699 -4.66602 6.99902 -9.99902 6.99902c-4.66699 0 -9.5 -1 -14.5 -3s-9.33301 -4.66699 -13 -8s-6.83398 -6.66602 -9.50098 -9.99902c-1.33301 -2 -2 -4 -2 -6v-1c0 -1.33301 0.666992 -2 2 -2c12 0 28 6.66699 48 20
c-0.666992 1.33301 -1 2.33301 -1 3zM274 197.999l-0.00195312 -3c40 49.333 76.333 116.333 109 201c20 50 33.333 95 40 135c3.33301 12 3.83301 27.833 1.5 47.5s-10.166 24.167 -23.499 13.5c-9.33301 -6.66699 -19 -18 -29 -34
c-41.333 -67.333 -70.666 -156.333 -87.999 -267c-6 -34.667 -9.33301 -65.667 -10 -93zM13.998 165.999c-2 0 -4.50195 1.49707 -7.50195 4.49707s-4.83301 5.83301 -5.5 8.5c-2.66699 17.333 10 31.666 38 42.999c4.66699 2.66699 9.66699 4 15 4
c13.333 0 21.666 -6 24.999 -18c0.666992 0 1.66699 0.666992 3 2c17.333 16 26 19.667 26 11c0 -13.333 2.83301 -22.833 8.5 -28.5s15.834 -7.16699 30.501 -4.5c18.667 4 40 12.667 64 26l1 1c14.667 12 25.334 19 32.001 21h1l4 -6
c-2.66699 -2.66699 -5.66699 -5.16699 -9 -7.5s-7.5 -4.83301 -12.5 -7.5s-8.5 -4.66699 -10.5 -6c-21.333 -17.333 -33.666 -33.333 -36.999 -48c-2.66699 -8 -2.33398 -14.667 0.999023 -20s9 -7 17 -5c18 2.66699 39 17.334 63 44.001v4.5v4.5
c0 1.33301 0.166992 2.83301 0.5 4.5s0.5 3.16699 0.5 4.5c2 56.667 12 119.334 30 188.001c18.667 70 42.667 129 72 177c10.667 16.667 21.334 29.334 32.001 38.001c10.667 8 19.667 9 27 3c11.333 -9.33301 13.666 -33.666 6.99902 -72.999
c-6 -39.333 -19.333 -85 -40 -137c-38 -93.333 -77 -163.333 -117 -210c-3.33301 -67.333 4 -115.666 22 -144.999c4.66699 -7.33301 9.33398 -12 14.001 -14c2 -0.666992 3 -2.16699 3 -4.5s-0.833008 -4.33301 -2.5 -6s-3.5 -1.83398 -5.5 -0.500977
c-18.667 8.66699 -30.834 26.834 -36.501 54.501s-8.5 61.167 -8.5 100.5c-9.33301 -10 -22.333 -20.333 -39 -31c-6 -3.33301 -12.667 -5.83301 -20 -7.5s-14.166 -1 -20.499 2s-9.5 9.5 -9.5 19.5c0 14.667 7.33301 30 22 46c-1.33301 -0.666992 -3 -1.33398 -5 -2.00098
c-48.667 -20.667 -77 -20 -85 2c-2 4.66699 -3.33301 9.66699 -4 15c-28.667 -22 -51.667 -36.667 -69 -44c-4.66699 -2 -9.66699 -3 -15 -3z" />
    <glyph glyph-name="af" unicode="af" horiz-adv-x="433" 
d="M78 189c-4.66699 2 -10.668 3.00098 -18.001 3.00098c-22.667 0 -38 -5.33301 -46 -16c0 -0.666992 -0.333008 -1.33398 -1 -2.00098s-1 -1.33398 -1 -2.00098v-1l-1 -1c1.33301 -0.666992 2.33301 -1 3 -1h5c11.333 1.33301 28.666 7 51.999 17
c0.666992 0 1.83398 0.333008 3.50098 1s2.83398 1.33398 3.50098 2.00098zM363.999 379.001c-22.667 -22.667 -44.667 -63.667 -66 -123c35.333 42.667 58 73.667 68 93c5.33301 10.667 8 19.667 8 27v5c0 2 -0.666992 3 -2 3h-1c-2.66699 -1.33301 -5 -3 -7 -5z
M317.999 -58.999c-10.667 56 -30.332 116.332 -58.999 180.999c-0.666992 -1.33301 -1 -2.33301 -1 -3c-28.667 -122 -32 -229 -10 -321c8.66699 -36.667 23 -50.667 43 -42c19.333 10.667 31 39.334 35 86.001c1.33301 30.667 -1.33398 63.667 -8.00098 99zM21.001 158
c-14 0 -21.0039 3.99805 -21.0039 11.998v5c2 10 9.16699 17.667 21.5 23s25.5 8 39.5 8c9.33301 0 17 -1.66699 23 -5c0.666992 0 1.83398 -0.666992 3.50098 -2s2.83398 -2 3.50098 -2v-1c8.66699 2.66699 18 8.33398 28 17.001c2.66699 2 5 2 7 0s2.66699 -4.33301 2 -7
c-8.66699 -16 -14.334 -31 -17.001 -45c-4 -22 -1 -35 9 -39s24.667 -0.666992 44 10c10.667 6 23.667 15.667 39 29c20 16.667 42.333 38.334 67 65.001c18.667 58.667 38.334 103 59.001 133c8 12 16.667 22 26 30c6 3.33301 10.667 5.66602 14 6.99902
c10 0 15 -6.66699 15 -20c0 -6.66699 -3.33301 -17.334 -10 -32.001c-12 -20 -32 -47.333 -60 -82l-22 -26c-9.33301 -24.667 -19.333 -58 -30 -100c21.333 0 40.5 1.5 57.5 4.5s32.833 7.33301 47.5 13s26.334 10.667 35.001 15s20.334 10.833 35.001 19.5
c2 0.666992 3 0 3 -2c0 -3.33301 -0.666992 -5.66602 -2 -6.99902c-50.667 -34.667 -108 -51.334 -172 -50.001c28.667 -66 48.667 -127.667 60 -185c14.667 -78 10.667 -136.333 -12 -175c-8.66699 -14 -19.667 -21 -33 -21c-5.33301 0 -10.166 1.33301 -14.499 4
s-7.83301 5.5 -10.5 8.5s-5.16699 7.83301 -7.5 14.5s-4 11.667 -5 15s-2.33301 9 -4 17s-2.83398 13 -3.50098 15c-21.333 114.667 -11.333 244.334 30 389.001c-20 -21.333 -39 -39.666 -57 -54.999c-26.667 -23.333 -48 -37.333 -64 -42c-16.667 -4.66699 -29 -2 -37 8
s-10 24 -6 42c1.33301 8 4.33301 18.333 9 31l-9 -6c-16.667 -10 -34.334 -18 -53.001 -24c-9.33301 -4 -18.666 -6.33301 -27.999 -7z" />
    <glyph glyph-name="al" unicode="al" horiz-adv-x="320" 
d="M78 211c-9.33301 3.33301 -18.167 3.33203 -26.5 -0.000976562s-15.5 -8 -21.5 -14s-10.667 -12.333 -14 -19c5.33301 0.666992 13 4 23 10c6 2.66699 14.333 7.33398 25 14.001zM298.999 488.999c-31.333 -91.333 -53.998 -184.667 -67.998 -280
c65.333 87.333 113 169.333 143 246c12.667 32 21 61 25 87c5.33301 42 0.666016 70.333 -14.001 85c-12.667 10.667 -30.334 -7 -53.001 -53c-10 -22 -21 -50.333 -33 -85zM0.000976562 170.998l0.00195312 7.99902c1.33301 14.667 11 28 29 40c20 12.667 40 13.667 60 3h2
c7.33301 4.66699 15 10 23 16v-2c0.666992 0.666992 1.5 0.833984 2.5 0.500977s2 -1.33301 3 -3s1.5 -3.16699 1.5 -4.5c-0.666992 -1.33301 -1.33398 -3.33301 -2.00098 -6c-1.33301 -5.33301 -2.5 -9.66602 -3.5 -12.999s-2.16699 -8.33301 -3.5 -15
s-2.16602 -12.334 -2.49902 -17.001s-0.833008 -10 -1.5 -16s-0.5 -11.167 0.5 -15.5s2.16699 -8.5 3.5 -12.5s3.5 -7.33301 6.5 -10s6.83301 -4.33398 11.5 -5.00098h4c6 0 14 4.33301 24 13c14.667 11.333 33.334 30.666 56.001 57.999c16 105.333 40.667 206 74 302
c21.333 60.667 40.666 103 57.999 127c10.667 15.333 21.334 22.666 32.001 21.999c9.33301 0 16.5 -5.66699 21.5 -17s7.83301 -23 8.5 -35c1.33301 -17.333 0.666016 -34.666 -2.00098 -51.999s-5.83398 -31.5 -9.50098 -42.5s-8.83398 -25.167 -15.501 -42.5
c-30.667 -78 -77.334 -158 -140.001 -240l-13 -16c-9.33301 -64.667 -13.333 -117 -12 -157c2 -46.667 12 -71.667 30 -75c2 -0.666992 3.33301 -2 4 -4s0.333984 -3.83301 -0.999023 -5.5s-3 -2.16699 -5 -1.5c-22 4.66699 -35.333 33 -40 85c-1.33301 26 0 57 4 93l5 47
c-18.667 -22 -35.667 -39 -51 -51c-12.667 -10.667 -22.667 -16 -30 -16h-3c-28 4.66699 -34.667 40.334 -20 107.001c-34.667 -24.667 -55.667 -39 -63 -43c-12 -7.33301 -21.333 -11.666 -28 -12.999h-2h-3c-8 0 -12 2.66699 -12 8c-0.666992 0 -1 0.333008 -1 1z" />
    <glyph glyph-name="ar" unicode="ar" horiz-adv-x="399" 
d="M81 229l-3.00098 2h-1h-1h-7c-9.33301 0 -21.666 -6.66699 -36.999 -20c-9.33301 -8.66699 -16 -18.667 -20 -30v-2c11.333 3.33301 25.333 12 42 26s26 21.667 28 23c0 0.666992 -0.333008 1 -1 1zM264.999 66c-7.33301 0 -12.666 3.3291 -15.999 9.99609s-5 14 -5 22
s0.666992 15.833 2 23.5s3.33301 16.834 6 27.501s4.33398 18 5.00098 22c0 1.33301 0.666992 5 2 11l3 13.5c0.666992 3 1.33398 7.33301 2.00098 13s1 10.334 1 14.001s-0.166992 7.66699 -0.5 12s-1.33301 8.16602 -3 11.499s-3.83398 6.33301 -6.50098 9
c-8 12.667 -13.333 21.667 -16 27c-22 -44 -44 -82 -66 -114c-13.333 -18.667 -23.666 -31.667 -30.999 -39c-4 -4.66699 -9 -8.66699 -15 -12c-0.666992 -0.666992 -2.16699 -1.16699 -4.5 -1.5s-3.83301 -0.5 -4.5 -0.5h-2c-4 1.33301 -7.16699 3.33301 -9.5 6
s-4.16602 6.33398 -5.49902 11.001s-2.33301 9.16699 -3 13.5s-0.833984 10 -0.500977 17s0.666016 12.667 0.999023 17s1.16602 10.333 2.49902 18s2.16602 13 2.49902 16s1.16602 7.83301 2.49902 14.5l2 10l-59 -48c-9.33301 -8 -18 -14.333 -26 -19
c-2.66699 -2 -5.66699 -3 -9 -3h-6c-5.33301 0 -8 4.33301 -8 13c0.666992 0.666992 1 1.33398 1 2.00098c10 30 26.667 49 50 57c6.66699 2 12.667 3 18 3c2 0 4.5 -0.333008 7.5 -1s5.66699 -1.83398 8 -3.50098s3.5 -3.5 3.5 -5.5l3 3c8 7.33301 15.667 15 23 23
c2 2 4.5 2.16699 7.5 0.5s3.83301 -4.16699 2.5 -7.5c-12 -52.667 -16.333 -90.334 -13 -113.001c1.33301 -8.66699 4 -13 8 -13h2v0c3.33301 2 6.5 4.16699 9.5 6.5s5.66699 4.5 8 6.5s5 4.83301 8 8.5s5 6.33398 6 8.00098s3.33301 5 7 10s5.83398 7.83301 6.50098 8.5
c17.333 24.667 38 59 62 103c4.66699 10 7.33398 17 8.00098 21v6v0c-0.666992 1.33301 1.66602 2 6.99902 2c1.33301 -0.666992 2 -1.66699 2 -3v-7c2 -11.333 9 -24.666 21 -39.999c9.33301 -14 8.66602 -43 -2.00098 -87c-1.33301 -4.66699 -3.16602 -12 -5.49902 -22
s-4.16602 -18.833 -5.49902 -26.5s-2 -15.167 -2 -22.5c0 -16.667 4.66699 -25 14 -25c8 0 18.333 4.33301 31 13c34.667 22 69.667 55 105 99c1.33301 1.33301 3 1.83301 5 1.5s3.16699 -1.33301 3.5 -3s0.166016 -3.16699 -0.500977 -4.5
c-43.333 -48 -79.333 -81.333 -108 -100c-15.333 -9.33301 -27.333 -13.666 -36 -12.999z" />
    <glyph glyph-name="as" unicode="as" horiz-adv-x="367" 
d="M50 206c-6 0 -11.667 -1.16602 -17 -3.49902s-10 -5.33301 -14 -9s-6.66699 -8.16699 -8 -13.5c0 -0.666992 0.333008 -1.33398 1 -2.00098c0.666992 0 1.16699 -0.166992 1.5 -0.5s0.833008 -0.5 1.5 -0.5c4.66699 -0.666992 11.667 1 21 5
c12 6.66699 21.667 12.667 29 18c-4 4 -9 6 -15 6zM210 109.001c0 1.33301 -0.167969 3.16895 -0.500977 5.50195s-0.5 3.83301 -0.5 4.5c-14.667 -9.33301 -27 -23.333 -37 -42c-3.33301 -8.66699 -5 -15.667 -5 -21c0 -8.66699 2 -13.667 6 -15s8.16699 -0.5 12.5 2.5
s7.83301 6.5 10.5 10.5c0.666992 1.33301 1.83398 3.16602 3.50098 5.49902s2.83398 4.5 3.50098 6.5c5.33301 11.333 7.66602 25.666 6.99902 42.999zM208.999 126.004c-4.66699 32 -7.00195 49.667 -7.00195 53v7c0 0.666992 0.166992 1.83398 0.5 3.50098l0.5 2.5v1
c-9.33301 -4 -19.166 -7.33301 -29.499 -10s-21 -4.33398 -32 -5.00098s-20.667 1.83301 -29 7.5s-13.833 14.167 -16.5 25.5c-17.333 -15.333 -35.666 -28 -54.999 -38c-11.333 -5.33301 -20 -7.66602 -26 -6.99902c-6 0 -10.333 3 -13 9s-2.66699 11.667 0 17
c10 17.333 26 26 48 26c10.667 0 19.667 -3.66699 27 -11l20 15c1.33301 2 2.83301 2.5 4.5 1.5s2.5 -2.5 2.5 -4.5c-1.33301 -16 5.5 -26.5 20.5 -31.5s30.167 -4.83301 45.5 0.5c11.333 3.33301 23.666 8.66602 36.999 15.999v0.5v1.5c8 12 20.667 23.333 38 34l11 6
c0.666992 0 1.5 0.333008 2.5 1s2 1.16699 3 1.5l3 1c1 0.333008 1.83301 0.5 2.5 0.5h4h1l1 -1c2.66699 0 4 -2 4 -6v-2c-0.666992 -2 -1.5 -3.5 -2.5 -4.5s-2.33301 -2 -4 -3s-2.83398 -1.83301 -3.50098 -2.5l-10 -7
c-1.33301 -1.33301 -5.16602 -3.66602 -11.499 -6.99902s-11.333 -6.33301 -15 -9s-6.5 -6 -8.5 -10c-2.66699 -4 -4.16699 -9.33301 -4.5 -16s0.333984 -15.5 2.00098 -26.5s2.5 -17.167 2.5 -18.5c40.667 23.333 90.334 40.333 149.001 51c2 0 3.5 -0.666992 4.5 -2
s1.33301 -2.83301 1 -4.5s-1.5 -2.83398 -3.5 -3.50098c-59.333 -7.33301 -109 -23.333 -149 -48c0.666992 -9.33301 1 -16.333 1 -21c0 -26.667 -7 -47 -21 -61c-10.667 -14 -21.334 -19.333 -32.001 -16c-7.33301 3.33301 -11 11.333 -11 24
c1.33301 26.667 17.333 50 48 70z" />
    <glyph glyph-name="at" unicode="at" horiz-adv-x="349" 
d="M323 448c-0.666992 -4 -1 -6.33496 -1 -7.00195c0 0.666992 0.333008 1.83398 1 3.50098s1 2.83398 1 3.50098h-1zM370 606.998c-12 -28 -27.333 -79.001 -46 -153.001h3c20 50.667 32.667 88 38 112c4 16.667 5.66699 30.334 5 41.001zM451 443.997
c-2 -0.666992 -3.8291 -0.322266 -5.49609 1.01074s-2.16699 3.33301 -1.5 6h-36c-6.66699 0 -19 -0.666992 -37 -2s-31.333 -2 -40 -2l-0.5 -1c-0.333008 -0.666992 -0.5 -1.33398 -0.5 -2.00098c-2 -4 -4.66699 -10 -8 -18s-6 -14 -8 -18
c-10 -48.667 -17.667 -87.834 -23 -117.501s-10.5 -67.5 -15.5 -113.5s-7.5 -89.333 -7.5 -130c0 -31.333 1.33301 -59 4 -83c0.666992 -2 0.333984 -3.5 -0.999023 -4.5s-2.83301 -1.16699 -4.5 -0.5s-2.5 1.66699 -2.5 3c-3.33301 25.333 -5 53.666 -5 84.999
c0 68.667 8.33301 152.667 25 252c3.33301 23.333 7.66602 47 12.999 71l-0.5 -1l-0.5 -1c-36 -71.333 -63.667 -121 -83 -149c-21.333 -34 -37.333 -57.333 -48 -70c-12 -13.333 -24.333 -21 -37 -23c-26 -4 -35.667 27 -29 93c-30.667 -30.667 -56 -48.334 -76 -53.001
c-13.333 -3.33301 -20 2.66699 -20 18c3.33301 15.333 10.5 28.5 21.5 39.5s24.167 16.5 39.5 16.5c4 0 8.5 -1.5 13.5 -4.5s5.83301 -6.16699 2.5 -9.5c-2 -0.666992 -3.33301 -0.833984 -4 -0.500977s-1.83398 1.16602 -3.50098 2.49902s-2.83398 2 -3.50098 2
c-0.666992 0.666992 -2.33398 1 -5.00098 1c-10 0 -19.667 -4.5 -29 -13.5s-15.333 -18.5 -18 -28.5c-0.666992 -2 -1 -4 -1 -6c0 -0.666992 -0.166992 -1.16699 -0.5 -1.5s-0.5 -0.833008 -0.5 -1.5l-1 -1h1l1 -1c4.66699 0 14 4.66699 28 14
c12 7.33301 26.667 19.666 44 36.999c8.66699 7.33301 14.334 13.666 17.001 18.999c4.66699 4.66699 9 5.66699 13 3c2.66699 -2 3.66699 -4.66699 3 -8c-12 -48 -13.333 -81 -4 -99c2.66699 -5.33301 6.66699 -8 12 -8c8.66699 0 19.667 6.66699 33 20
c12.667 13.333 29 35.666 49 66.999c30.667 50 61 108 91 174c1.33301 4.66699 2.66602 10 3.99902 16l4 18c1.33301 6 2.66602 11.333 3.99902 16c-40 -3.33301 -87.333 -5 -142 -5c-8 0 -17.333 0.333008 -28 1s-18.334 1 -23.001 1l-3 1c-3.33301 0 -5 1.66699 -5 5
c0 2.66699 1.66699 4 5 4h4c5.33301 0 13.166 -0.666992 23.499 -2s18.833 -2 25.5 -2c16.667 -0.666992 35.334 -0.666992 56.001 0c13.333 0 34.666 0.666992 63.999 2c5.33301 0 13.333 0.666992 24 2c0 1.33301 0.333008 3.16602 1 5.49902s1.33398 3.83301 2.00098 4.5
c18 70.667 32.333 118 43 142c3.33301 6 5.33301 9.33301 6 10c0.666992 0 1.33398 0.333008 2.00098 1l1 0.5c0.666992 0.333008 1.33398 0.5 2.00098 0.5c4 -1.33301 6 -3 6 -5c0.666992 -1.33301 1 -3.33301 1 -6c1.33301 -17.333 -4.33398 -45 -17.001 -83
c-5.33301 -18 -14 -41.333 -26 -70l40 3c17.333 1.33301 30 2.16602 38 2.49902s20.333 0.166016 37 -0.500977h2h2c1.33301 0 2.33301 -0.333008 3 -1h1c2.66699 -3.33301 3.33398 -5.66602 2.00098 -6.99902c0 -0.666992 -0.833008 -1.66699 -2.5 -3
s-2.83398 -2 -3.50098 -2l-3 -1z" />
    <glyph glyph-name="att" unicode="att" horiz-adv-x="612" 
d="M555 470c1.33301 0 3.16699 0.166016 5.5 0.499023s3.83301 0.5 4.5 0.5c13.333 47.333 21 84.666 23 111.999v10v2.5v2.5c0 -1.33301 -0.833008 -3.66602 -2.5 -6.99902s-2.5 -5.33301 -2.5 -6c-8.66699 -23.333 -18 -61.666 -28 -114.999zM541.001 384.999l21.999 78
c-0.666992 0 -2.16699 -0.166992 -4.5 -0.5s-3.83301 -0.5 -4.5 -0.5c-5.33301 -25.333 -9.66602 -51 -12.999 -77zM528 347.999c6 41.333 12.3311 79.666 18.998 114.999c-77.333 -5.33301 -141.666 -10 -192.999 -14c-3.33301 -10 -11 -31.333 -23 -64
c-9.33301 -44.667 -17 -90 -23 -136c-4 -32.667 -6.66699 -58.167 -8 -76.5s-1.83301 -41.5 -1.5 -69.5s2.83301 -52.333 7.5 -73c2 -12 5.66699 -23 11 -33s12.333 -14.333 21 -13c5.33301 0.666992 11 3.33398 17 8.00098c22.667 18.667 47.334 54.667 74.001 108
c32 64.667 64.667 146 98 244c0.666992 0.666992 1 2 1 4zM402.998 664.999c-14 -42 -21.668 -65.334 -23.001 -70.001c-12.667 -46 -24 -91 -34 -135c28.667 80.667 47 143.334 55 188.001c0.666992 4 1.33398 9.66699 2.00098 17zM86.9971 199.998
c-2 0.666992 -3.66602 1.99805 -4.99902 3.99805h-1c-8 8 -20.5 8.83301 -37.5 2.5s-26.833 -13.833 -29.5 -22.5c0 -1.33301 0.333008 -2.33301 1 -3c0 -3.33301 2 -5.16602 6 -5.49902s8.83301 0.333984 14.5 2.00098l15 4.5c4.33301 1.33301 7.16602 2.33301 8.49902 3
c10.667 5.33301 20 10.333 28 15zM594.998 581.996c-2 -24 -9.33008 -61.0078 -21.9971 -111.008c1.33301 0 3.83301 0.166992 7.5 0.5s6.16699 0.5 7.5 0.5c22 0.666992 37.667 1 47 1c7.33301 0 16.333 -0.166992 27 -0.5s22.167 -1.16602 34.5 -2.49902
s22.333 -3.33301 30 -6s10.834 -5.66699 9.50098 -9c-2 -2.66699 -4.33301 -3.33398 -7 -2.00098c-18 8 -49 12 -93 12c-12 0 -34.333 -0.333008 -67 -1c-10.667 -40 -22.334 -79.333 -35.001 -118c-18 -138 -21.667 -255.667 -11 -353c0 -2 -2 -3.66699 -6 -5
c-4.66699 0 -7 1.66699 -7 5c-8 76 -3.66699 182.333 13 319c-29.333 -82.667 -58.666 -154.334 -87.999 -215.001c-16 -32.667 -30.667 -58.667 -44 -78c-10.667 -15.333 -21 -27 -31 -35c-10.667 -8 -21.834 -10.5 -33.501 -7.5s-19.5 10.167 -23.5 21.5
c-8.66699 13.333 -14.334 37.666 -17.001 72.999c-6 66 0 150.333 18 253c-24.667 -58.667 -45.667 -104.667 -63 -138c-8.66699 -17.333 -16 -30 -22 -38l-13 -19c-14.667 -18.667 -31.334 -28 -50.001 -28c-33.333 4.66699 -41.333 45 -24 121h-0.5
c-0.333008 0 -0.5 -0.333008 -0.5 -1c-20 -16.667 -43 -31.667 -69 -45c-0.666992 0 -2.66699 -0.833008 -6 -2.5s-5.66602 -2.66699 -6.99902 -3s-3.66602 -1.16602 -6.99902 -2.49902s-6 -2.16602 -8 -2.49902s-4.5 -0.666016 -7.5 -0.999023
s-5.83301 -0.166016 -8.5 0.500977s-5.33398 1.66699 -8.00098 3l-2 1c-14 13.333 -11 27.333 9 42s40 19 60 13c6 -2 10.667 -4.66699 14 -8s5 -6.66602 5 -9.99902c20 12.667 34 23.334 42 32.001c0.666992 2 2.16699 2.33301 4.5 1s2.83301 -3 1.5 -5
c-2.66699 -11.333 -4.83398 -23.166 -6.50098 -35.499s-3 -26.666 -4 -42.999s1.33301 -28.666 7 -36.999s14.5 -10.833 26.5 -7.5c16 5.33301 31 19.333 45 42c16 26.667 35.667 66.334 59 119.001c16.667 38 31.334 74 44.001 108c8.66699 42.667 13.334 64.667 14.001 66
c-52.667 -3.33301 -92.667 -5 -120 -5h-20c-5.33301 0 -12.333 0.333008 -21 1s-17.834 1.66699 -27.501 3s-17.334 3.33301 -23.001 6s-7.83398 5.66699 -6.50098 9c2 2.66699 6.33301 2.33398 13 -0.999023c21.333 -7.33301 50.333 -11 87 -11c16.667 0 50 1 100 3
c4.66699 0 12 0.333008 22 1c19.333 87.333 38.333 157 57 209c6 16 11.333 25.333 16 28h5c0.666992 0 1.66699 -0.666992 3 -2s2 -2.33301 2 -3v-4v-12c-1.33301 -15.333 -5.66602 -37.333 -12.999 -66c-10 -40 -25.333 -89 -46 -147
c21.333 1.33301 52.5 3.66602 93.5 6.99902l85.5 7c1.33301 0 3.33301 0.166992 6 0.5s4.66699 0.5 6 0.5c4.66699 28.667 11.667 60.667 21 96c6 22.667 11 36 15 40c0.666992 0 1.16699 0.333008 1.5 1s1.16602 1 2.49902 1c4 0 6 -3 6 -9
c0.666992 -1.33301 1 -3.33301 1 -6v-11z" />
    <glyph glyph-name="bb" unicode="bb" horiz-adv-x="403" 
d="M56 371c-23.333 -63.333 -37.668 -121.334 -43.001 -174.001c12.667 14 29.334 39.333 50.001 76c36.667 73.333 59.334 137.666 68.001 192.999c1.33301 8.66699 2 17.334 2 26.001c0 4 -1 8.33301 -3 13c-8.66699 -4.66699 -19.334 -18 -32.001 -40
c-15.333 -27.333 -29.333 -58.666 -42 -93.999zM72.998 46.999c12 -1.33301 21.5 5 28.5 19s9.83301 29 8.5 45l-13 -19c-14.667 -21.333 -22.667 -36 -24 -44v-1zM283.998 444.999c-28 -52 -49.668 -110.996 -65.001 -176.996c53.333 68 92.666 123.667 117.999 167
c15.333 27.333 25.333 53 30 77l0.5 3.5c0.333008 2.33301 0.5 4.16602 0.5 5.49902v5.5c0 2.33301 -0.166992 4.16602 -0.5 5.49902l-1 4c-0.333008 1.33301 -1.16602 2.16602 -2.49902 2.49902s-2.66602 0.166016 -3.99902 -0.500977
c-8.66699 -2.66699 -18.667 -10.667 -30 -24c-16 -18.667 -31.333 -41.667 -46 -69zM243.997 72.0029c0 -5.33301 1.66699 -7.99902 5 -7.99902l1.5 0.5c1 0.333008 1.83301 0.5 2.5 0.5c11.333 5.33301 17.333 8.66602 18 9.99902c22 18.667 36.333 45.667 43 81
c-26.667 -18.667 -46.667 -38.667 -60 -60c-4.66699 -8.66699 -8 -16.667 -10 -24zM315.997 169.004c3.33301 32 -3.33105 50.668 -19.998 56.001h-2c-16.667 2 -34.334 -10.667 -53.001 -38c-8 -10.667 -14 -21.334 -18 -32.001c-2 -3.33301 -4.5 -8.83301 -7.5 -16.5
s-5.5 -13.167 -7.5 -16.5v-1c-1.33301 -3.33301 -4 -4.83301 -8 -4.5s-6 2.5 -6 6.5c-2 21.333 -0.666992 56 4 104l-0.5 -1c-0.333008 -0.666992 -0.833008 -1 -1.5 -1l-77 -101l0.5 -1l0.5 -1c3.33301 -16.667 2.33301 -32.667 -3 -48s-13.333 -26.666 -24 -33.999
c-3.33301 -2.66699 -7.66602 -4.5 -12.999 -5.5s-9.33301 -0.833008 -12 0.5c-4 0 -6.33301 1.83301 -7 5.5s-0.5 7.5 0.5 11.5s2.16699 7 3.5 9c3.33301 6.66699 7 13.167 11 19.5s9.83301 14.5 17.5 24.5s12.167 16 13.5 18c-3.33301 13.333 -9.66602 21 -18.999 23
c-16 4.66699 -35 -9.66602 -57 -42.999c-8 -11.333 -14 -23.666 -18 -36.999c-1.33301 -2.66699 -3.66602 -3 -6.99902 -1h-2c-8 58.667 -3.33301 128 14 208c19.333 87.333 48 159.666 86 216.999c16.667 24.667 28.667 29.667 36 15c1.33301 -3.33301 2 -8.33301 2 -15
c0 -22 -4.33301 -47.667 -13 -77c-22 -74.667 -50 -138 -84 -190c-8.66699 -13.333 -18.334 -25.333 -29.001 -36c-2 -2 -3.66699 -3.33301 -5 -4c-3.33301 -26.667 -3.33301 -58.667 0 -96c10 22 22.333 40.333 37 55c15.333 14 29.666 19.333 42.999 16
c10.667 -3.33301 19 -11 25 -23l22 29l52 66l12 15c5.33301 34 15 70 29 108l7 20c25.333 62.667 53.333 111.667 84 147c11.333 15.333 23 24.666 35 27.999c3.33301 0.666992 5.66602 0.666992 6.99902 0c4.66699 0 8.16699 -1.66699 10.5 -5s3.33301 -7.83301 3 -13.5
s-0.833008 -11.334 -1.5 -17.001s-2 -12 -4 -19s-3.66699 -12.333 -5 -16s-2.33301 -6.83398 -3 -9.50098c-10 -24.667 -32 -61 -66 -109l-82 -109c-5.33301 -31.333 -8 -63 -8 -95c0 0.666992 1 3 3 7c6.66699 12 12.167 21.5 16.5 28.5s10.833 14.833 19.5 23.5
s17.667 15 27 19c20 6 34.167 2.66699 42.5 -10s11.166 -29.667 8.49902 -51c10.667 7.33301 23.167 12.166 37.5 14.499s29.166 1.5 44.499 -2.5c4.66699 -1.33301 5.33398 -3.66602 2.00098 -6.99902c-1.33301 -1.33301 -3 -2 -5 -2
c-22.667 6.66699 -49.334 2.33398 -80.001 -12.999c-4 -21.333 -12.333 -43.333 -25 -66c-15.333 -28 -32.666 -42 -51.999 -42c-16.667 0 -16.667 15.333 0 46c18 27.333 41 49.333 69 66v1v2z" />
    <glyph glyph-name="bl" unicode="bl" horiz-adv-x="567" 
d="M65 412c-22 -71.333 -38 -143.332 -48 -215.999l13 12c46 48 80.667 116.667 104 206c18 63.333 18 103.666 0 120.999c-8 8 -18 -0.333008 -30 -25c-12.667 -23.333 -25.667 -56 -39 -98zM144 186.001c-2 14 -4.66797 21 -8.00098 21c-7.33301 0 -14.5 -5 -21.5 -15
s-11.167 -19 -12.5 -27v-3h2c0.666992 0 3.33398 0.666992 8.00098 2l2 2c14.667 7.33301 24.667 13.333 30 18v2zM447.999 658.001c-49.333 -68.667 -86.999 -168.333 -112.999 -299c48.667 57.333 85.667 111.333 111 162c21.333 42 34.666 83.667 39.999 125
c2.66699 20 2 32 -2 36c-0.666992 1.33301 -1.66699 2 -3 2c-3.33301 1.33301 -7.33301 0 -12 -4c-6 -4.66699 -13 -12 -21 -22zM569 186.002c0.666992 1.33301 1.83691 1.99902 3.50391 1.99902s3 -0.666992 4 -2s0.833008 -3 -0.5 -5
c-20.667 -31.333 -45.834 -61 -75.501 -89s-61.5 -48 -95.5 -60c-26.667 -9.33301 -47.667 -9.33301 -63 0c-14.667 8.66699 -25.667 28.334 -33 59.001c-5.33301 25.333 -7.33301 58 -6 98c2 41.333 7.33301 87.666 16 138.999
c-16.667 -19.333 -41.667 -44.666 -75 -75.999c-33.333 -30.667 -61.333 -54 -84 -70c1.33301 -20.667 -3.16699 -39.834 -13.5 -57.501s-23.5 -31.834 -39.5 -42.501c-24.667 -18 -47.334 -23.333 -68.001 -16c-14.667 5.33301 -25.667 19 -33 41
c-1.33301 7.33301 -3 13.333 -5 18c-1.33301 14.667 -1 35.667 1 63c8 73.333 24.667 150 50 230c19.333 58.667 37.666 99 54.999 121c6 6 12.333 10 19 12c11.333 0 19.333 -5.66699 24 -17s6.5 -25.333 5.5 -42s-2.66699 -31.5 -5 -44.5s-4.83301 -24.833 -7.5 -35.5
c-28 -104 -69.333 -179.333 -124 -226l-3 -3v-51.5c0 -17 4.5 -30.667 13.5 -41s22.833 -13.166 41.5 -8.49902c18.667 6 34.834 17.167 48.501 33.5s21.834 34.833 24.501 55.5c-14 -9.33301 -22.333 -14.333 -25 -15v-1c-6 -2.66699 -10.333 -4.33398 -13 -5.00098
c-6.66699 0 -11.334 1.33301 -14.001 4c-2 3.33301 -3 7.66602 -3 12.999c2 17.333 11.333 33 28 47c4 4 9.33301 6.33301 16 7s12 -1.33301 16 -6c4.66699 -5.33301 7.66699 -12.333 9 -21c54 39.333 108.333 89.333 163 150c21.333 122.667 54.666 221 99.999 295
c13.333 22.667 27.333 39.334 42 50.001c14.667 7.33301 24.334 7.33301 29.001 0c4.66699 -8 6 -22.333 4 -43c-8 -55.333 -33 -117.666 -75 -186.999c-26 -40 -55.667 -78.667 -89 -116c-10.667 -56.667 -17.334 -108 -20.001 -154
c-3.33301 -64.667 3.66699 -110.334 21 -137.001c17.333 -27.333 51.666 -26.666 102.999 2.00098c17.333 10 35 22.667 53 38l21.5 20.5c6.33301 6.33301 12.5 13 18.5 20l13 15.5c2.66699 3.33301 7.16699 9.83301 13.5 19.5s10.833 15.834 13.5 18.501z" />
    <glyph glyph-name="cc" unicode="cc" horiz-adv-x="416" 
d="M42 164c-28 -2 -42 3.33691 -42 16.0039c-2 12.667 6.33301 25.334 25 38.001c23.333 15.333 44.333 23 63 23c6.66699 0 12.334 -2.33301 17.001 -7c2.66699 -5.33301 2.33398 -9 -0.999023 -11c-2 -0.666992 -4 -0.333984 -6 0.999023s-2.33301 3.33301 -1 6
c0 1.33301 -2.66699 1.66602 -8 0.999023c-7.33301 0 -19 -4 -35 -12c-18 -9.33301 -30.333 -19 -37 -29c-4.66699 -5.33301 -3.66699 -8.83301 3 -10.5s14 -2.16699 22 -1.5c20.667 0.666992 54.334 7 101.001 19l51 13c31.333 8 57 12.667 77 14
c6.66699 0 14 -1.16699 22 -3.5s10 -5.83301 6 -10.5c-2 -1.33301 -3.66699 -1.66602 -5 -0.999023c-6.66699 2.66699 -13.667 4 -21 4c-22 -2 -40.667 -12.333 -56 -31c-2.66699 -3.33301 -5.16699 -7 -7.5 -11s-4.5 -8.83301 -6.5 -14.5s-2 -10.334 0 -14.001
s6.66699 -5.83398 14 -6.50098c13.333 -2.66699 35.666 0.666016 66.999 9.99902c8 2 17.167 4.83301 27.5 8.5l27.5 10c8 3 17.167 6.16699 27.5 9.5s19.833 6 28.5 8c11.333 3.33301 19.333 5 24 5c3.33301 0 5 -1.66699 5 -5c0 -2.66699 -1.33301 -4 -4 -4
c-6.66699 0 -21.334 -4 -44.001 -12l-44 -15c-38.667 -14.667 -69.334 -23.334 -92.001 -26.001c-1.33301 0 -3.5 -0.166992 -6.5 -0.5s-5.16699 -0.5 -6.5 -0.5c-18.667 0 -30.334 5.66699 -35.001 17c-4 14 1.33301 30 16 48c6 8.66699 13.333 15.667 22 21
c-7.33301 -2 -19 -5 -35 -9l-50 -13c-45.333 -14 -79.666 -22 -102.999 -24z" />
    <glyph glyph-name="ch" unicode="ch" horiz-adv-x="389" 
d="M253 503c-24.667 -76.667 -41 -145.335 -49 -206.002c46.667 56 86.667 120 120 192c12 25.333 21.667 51.333 29 78c4.66699 18 7 31.333 7 40c0 18.667 -5.66699 27.667 -17 27c-8 -1.33301 -18.667 -8.66602 -32 -21.999c-18 -19.333 -37.333 -55.666 -58 -108.999z
M29 156.999c-7.33301 0 -14.1699 2.16602 -20.5029 6.49902s-9.16602 9.83301 -8.49902 16.5c-0.666992 8 2 16 8 24c14 20 32 32.667 54 38c4 1.33301 8.33301 2 13 2c1.33301 0 3 -0.333008 5 -1s3.83301 -1.5 5.5 -2.5s2.83398 -2.33301 3.50098 -4
s0.333984 -3.16699 -0.999023 -4.5c-1.33301 -2.66699 -4.33301 -3 -9 -1h-1c-1.33301 0.666992 -2.66602 1 -3.99902 1c-6 0 -14.667 -3.33301 -26 -10c-12.667 -7.33301 -22.334 -16 -29.001 -26c-4 -4.66699 -5.83301 -9.66699 -5.5 -15s3.16602 -9 8.49902 -11h1.5h1.5
h1c0.666992 -0.666992 2 -1 4 -1h5l1.5 0.5c1 0.333008 1.83301 0.5 2.5 0.5c24.667 4.66699 54 21 88 49c8.66699 7.33301 29 27.333 61 60c20 110.667 44.333 199.667 73 267c18 41.333 38.333 70 61 86c9.33301 6 16.333 9 21 9c3.33301 0 5.66602 -0.333008 6.99902 -1
c6 0 10.5 -3.66699 13.5 -11s4.5 -15 4.5 -23c0 -12 -2.33301 -26.333 -7 -43c-20.667 -70 -59.334 -145.333 -116.001 -226c-13.333 -18.667 -28 -37.667 -44 -57c-10.667 -70.667 -16.667 -123.667 -18 -159c0 0.666992 0.333008 1.66699 1 3s1.33398 2 2.00098 2
c14 24 29.667 44 47 60c13.333 12 25 18.333 35 19h5c8 0 15.833 -3.5 23.5 -10.5s13.834 -14.5 18.501 -22.5s10 -14.667 16 -20s11.667 -7 17 -5c12.667 4.66699 26 16.334 40 35.001c1.33301 2 3 2.66699 5 2s3.33301 -1.83398 4 -3.50098
s0.333984 -3.16699 -0.999023 -4.5c-8.66699 -11.333 -17.667 -20.333 -27 -27c-8.66699 -8 -18 -12 -28 -12c-10.667 2 -21.667 11.833 -33 29.5s-21.333 27.5 -30 29.5c-1.33301 0.666992 -3 1 -5 1h-3c-9.33301 -1.33301 -19.333 -7.33301 -30 -18
c-20 -18.667 -39.667 -49.334 -59 -92.001c-1.33301 -4 -4.16602 -5.33301 -8.49902 -4s-6.5 3.66602 -6.5 6.99902c1.33301 38 7.66602 94.333 18.999 169c0 0.666992 0.166992 1.33398 0.5 2.00098s0.5 1.33398 0.5 2.00098c-44 -48.667 -85.333 -81.667 -124 -99
c-8 -3.33301 -15 -5.66602 -21 -6.99902h-3h-3h-6z" />
    <glyph glyph-name="ck" unicode="ck" horiz-adv-x="432" 
d="M286 565c-25.333 -56.667 -46.666 -122.001 -63.999 -196.001c0.666992 0.666992 1.66699 1.83398 3 3.50098s2 2.83398 2 3.50098c40.667 62 71.667 120 93 174c9.33301 25.333 15.666 47 18.999 65l1 6.5c0.666992 4.33301 1 7.5 1 9.5
c0 3.33301 -0.333008 5.66602 -1 6.99902c0 3.33301 -0.666992 5 -2 5c-4 0 -10.667 -6.66699 -20 -20c-10 -14 -20.667 -33.333 -32 -58zM296 95.999c-12 0 -23.502 1.66113 -34.502 4.99414s-23.333 8.33301 -37 15s-22.834 11 -27.501 13c-2.66699 -26 -4 -68 -4 -126
c0 -7.33301 0.333008 -16.166 1 -26.499s1 -16.833 1 -19.5v-16c0 -3.33301 -1.66699 -5 -5 -5s-5 1.33301 -5 4c-4.66699 45.333 -4.33398 107.333 0.999023 186c-5.33301 -5.33301 -14.333 -7 -27 -5c-8.66699 0 -13 3 -13 9c3.33301 9.33301 16 12.333 38 9
c0.666992 0 1.16699 -0.166992 1.5 -0.5s0.833008 -0.5 1.5 -0.5c6 88.667 13 153.334 21 194.001c-39.333 -56.667 -77.666 -104.667 -114.999 -144c-12 -12.667 -24.333 -23.667 -37 -33c-11.333 -6.66699 -20.333 -10 -27 -10h-8
c-6.66699 2.66699 -12.334 6.66699 -17.001 12s-5.66699 11 -3 17c-1.33301 16 4.33398 33.333 17.001 52c2 3.33301 4.16699 6.33301 6.5 9s5 5.5 8 8.5s6.33301 5.5 10 7.5s7.16699 3.5 10.5 4.5s6.83301 0.833008 10.5 -0.5s6.83398 -3.66602 9.50098 -6.99902
c2.66699 -5.33301 2.66699 -8.66602 0 -9.99902c-2 -1.33301 -4.5 -0.5 -7.5 2.5s-5.5 4.5 -7.5 4.5c-5.33301 0 -11.833 -4.16699 -19.5 -12.5s-14 -17.5 -19 -27.5s-7 -20 -6 -30s5.83301 -16.667 14.5 -20h1h1h3c4.66699 0 10.667 2.33301 18 7
c18 10.667 42.667 34 74 70c24.667 29.333 53.667 69.333 87 120c14.667 74 38 145.667 70 215c18.667 41.333 35.667 67.666 51 78.999c3.33301 3.33301 7 4.16602 11 2.49902s6 -4.5 6 -8.5v-10c0 -6 -0.666992 -11.667 -2 -17c-6 -33.333 -22 -75.666 -48 -126.999
c-17.333 -35.333 -43.666 -80.333 -78.999 -135c-8.66699 -42 -16.334 -113.333 -23.001 -214c39.333 22.667 70.666 49 93.999 79c0 0.666992 0.5 1.66699 1.5 3s1.83301 2.5 2.5 3.5s1.5 2.5 2.5 4.5s2 3.33301 3 4s2.16699 1.83398 3.5 3.50098
s2.33301 2.33398 3 2.00098s1.66699 -0.5 3 -0.5c2.66699 -2 1.83398 -6.16699 -2.49902 -12.5s-10.333 -13.5 -18 -21.5s-14.5 -14.667 -20.5 -20s-10.667 -9.66602 -14 -12.999c-15.333 -13.333 -32.666 -25.333 -51.999 -36c2 -0.666992 7.16699 -3.16699 15.5 -7.5
s14.5 -7.33301 18.5 -9l16.5 -7c7 -3 14 -5 21 -6s13.833 -1.16699 20.5 -0.5c15.333 0 29.333 2.33301 42 7l10 4c13.333 6.66699 21.666 11 24.999 13c18 14 32.667 26.667 44 38c8.66699 10 13.334 15.333 14.001 16c1.33301 1.33301 3 1.83301 5 1.5
s3.33301 -1.33301 4 -3s0.333984 -3.16699 -0.999023 -4.5c-28 -28 -48.667 -46.333 -62 -55l-17 -9l-9 -4c-18.667 -7.33301 -37 -11 -55 -11z" />
    <glyph glyph-name="cl" unicode="cl" horiz-adv-x="353" 
d="M283 301c19.333 22 35.168 40.999 47.501 56.999s24.833 36.5 37.5 61.5s22 49.833 28 74.5c9.33301 39.333 9 74 -1 104c-6 14.667 -13.667 18.334 -23 11.001c-12 -8 -24 -27 -36 -57c-24.667 -60 -42.334 -143.667 -53.001 -251zM104.002 227.999
c1.33301 -2 1.50098 -3.66797 0.500977 -5.00098s-2.33301 -2 -4 -2s-2.83398 0.333008 -3.50098 1c-4 6.66699 -9.66699 10 -17 10s-15 -2 -23 -6s-15.333 -8.33301 -22 -13s-11.667 -9 -15 -13c-10 -11.333 -11 -19.666 -3 -24.999c20.667 -12 50.334 -11.333 89.001 2
c56 18.667 113 58 171 118v1c10 106.667 28.333 193 55 259c0.666992 2 1.66699 4.5 3 7.5s2.5 5.5 3.5 7.5l3.5 7l3.5 7c1 2 2.33301 4.33301 4 7l4.5 7c1.33301 2 2.83301 4 4.5 6s3.5 3.83301 5.5 5.5s4 3.16699 6 4.5c2.66699 2 6 3.33301 10 4
c5.33301 0 9.83301 -2 13.5 -6s6.16699 -8.33301 7.5 -13s2.66602 -10.667 3.99902 -18s2.33301 -12.333 3 -15c2.66699 -46.667 -6.66602 -92.667 -27.999 -138c-24 -51.333 -55.667 -96.666 -95 -135.999c-8 -92 -9 -185.667 -3 -281
c0.666992 -7.33301 1.33398 -15.5 2.00098 -24.5l1.5 -20l1 -13.5c0.333008 -4.66699 0.166016 -7.83398 -0.500977 -9.50098s-2 -2.5 -4 -2.5c-3.33301 0 -5 1.66699 -5 5c-7.33301 137.333 -7 250.333 1 339c-56.667 -56.667 -112.667 -95.667 -168 -117
c-40.667 -16.667 -73.334 -18 -98.001 -4c-9.33301 4.66699 -13.333 12.667 -12 24c3.33301 14.667 16.333 29 39 43c30 16.667 51 17 63 1z" />
    <glyph glyph-name="db" unicode="db" horiz-adv-x="421" 
d="M61 209c38 86 62.001 167 72.001 243c2.66699 18 4 37 4 57c0 25.333 -4.33301 46 -13 62s-23.334 19.667 -44.001 11c-26.667 -12 -55.667 -42 -87 -90c-26 -40 -44.333 -80 -55 -120c-8 -32 -7.83301 -60.667 0.5 -86s22.333 -45.333 42 -60s43.167 -24 70.5 -28
c0.666992 0 1.5 -0.166992 2.5 -0.5s1.83301 -0.5 2.5 -0.5c1.33301 2.66699 3 6.66699 5 12zM326.001 613c-62.667 -111.333 -106.333 -239.669 -131 -385.002c48.667 30 88.334 70.333 119.001 121c2.66699 3.33301 6 8.33301 10 15l9 16
c44.667 84.667 71.667 163.667 81 237c2 10.667 3 22.334 3 35.001c0 6 -0.333008 11.5 -1 16.5s-1.83398 10.333 -3.50098 16s-4.33398 8.83398 -8.00098 9.50098s-8.5 0 -14.5 -2c-7.33301 -4 -15.666 -11.333 -24.999 -22c-12 -14.667 -25 -33.667 -39 -57z
M289.002 160.997c1.33301 -3.33301 2.33301 -6.83203 3 -10.499s1.16699 -7.66699 1.5 -12s0.5 -8.33301 0.5 -12v-13.5v-14c-6.66699 -40 -21.667 -68.333 -45 -85c-8.66699 -6 -17.334 -8.66699 -26.001 -8c-10.667 0 -19.5 3.83301 -26.5 11.5s-11.667 15.5 -14 23.5
s-4.16602 18.333 -5.49902 31c-4 41.333 -2 87.666 6 138.999c-32 -14.667 -63.333 -22.334 -94 -23.001c-9.33301 0 -16.333 0.333008 -21 1c-18.667 -42.667 -36 -72.667 -52 -90c-12 -14 -24.333 -23 -37 -27c-6 0 -10.667 2 -14 6s-5 9.33301 -5 16
c-0.666992 18.667 3 36 11 52s18 28.667 30 38c8 8 14 9 18 3c2.66699 -4 -0.666016 -9 -9.99902 -15c-8.66699 -5.33301 -17 -15.833 -25 -31.5s-11.667 -30.5 -11 -44.5c0 -5.33301 1 -8.33301 3 -9c0 -0.666992 0.666992 -1 2 -1c16 8.66699 32.333 25.667 49 51
c10.667 17.333 20.334 35.333 29.001 54c-0.666992 0.666992 -1.66699 1 -3 1c-44.667 9.33301 -78.834 29.5 -102.501 60.5s-29.5 71.167 -17.5 120.5c16 62.667 48 121 96 175c18.667 20 35.334 33.333 50.001 40c20.667 9.33301 37 6.5 49 -8.5s18 -33.833 18 -56.5v-15
c1.33301 -30.667 -2.66699 -68.667 -12 -114c-13.333 -62.667 -33.333 -126 -60 -190c-1.33301 -2 -3 -5 -5 -9h19c31.333 0.666992 63 8.66699 95 24c4 29.333 9.33301 59 16 89c28 120 67.667 223.333 119 310c16.667 26.667 30.334 46 41.001 58
c11.333 12 20.666 20.333 27.999 25c8 3.33301 15.167 3.83301 21.5 1.5s11.166 -6.83301 14.499 -13.5c3.33301 -9.33301 5 -21.666 5 -36.999c0 -14 -0.666992 -26 -2 -36c-9.33301 -63.333 -32 -132.333 -68 -207c-1.33301 -2 -4 -7 -8 -15l-9 -18l-9 -16
c-1.33301 -2 -3 -4.66699 -5 -8s-3.33301 -6 -4 -8c-35.333 -56.667 -77.666 -98.334 -126.999 -125.001c-9.33301 -56 -12 -104.333 -8 -145c2 -30.667 9.66699 -48.334 23 -53.001c2.66699 -1.33301 6 -2 10 -2c20 0 36 13.667 48 41c17.333 38 21 72 11 102
c0 0.666992 -0.166992 1.33398 -0.5 2.00098l-0.5 1c-12 4.66699 -20.667 11 -26 19c-0.666992 1.33301 -1 2.66602 -1 3.99902c0 4 2 6 6 6c9.33301 0 18.666 -7.66699 27.999 -23c40 -14 83.333 -10.667 130 10c0.666992 0.666992 2 1.33398 4 2.00098
c5.33301 2.66699 8.66602 2.33398 9.99902 -0.999023c0.666992 -2.66699 0 -4.66699 -2 -6c-19.333 -9.33301 -40.5 -15.833 -63.5 -19.5s-48.167 -2.16699 -75.5 4.5z" />
    <glyph glyph-name="dd" unicode="dd" horiz-adv-x="449" 
d="M337 196c38 59.333 63.998 122.669 77.998 190.002c14.667 69.333 9.66699 121.666 -15 156.999c-6.66699 11.333 -15.167 19.166 -25.5 23.499s-23.166 3.5 -38.499 -2.5c-19.333 -9.33301 -38.333 -27.666 -57 -54.999c-13.333 -21.333 -24.166 -44 -32.499 -68
s-13.833 -51 -16.5 -81s2 -58 14 -84c16 -38.667 47 -65.334 93 -80.001zM285.998 132.003c10.667 9.33301 26.333 28.3291 47 56.9961c-15.333 4 -29.666 10.333 -42.999 19l-1 -1c-24.667 -13.333 -44.334 -31.666 -59.001 -54.999c-2 -3.33301 -4 -7.16602 -6 -11.499
s-3.5 -9.16602 -4.5 -14.499s-0.333008 -9.66602 2 -12.999s6.5 -5 12.5 -5c16 0 33.333 8 52 24zM85.9971 200.999c42.667 72.667 72.999 145.999 90.999 219.999c8 36 12 68.333 12 97s-3.33301 52.334 -10 71.001l-3 11c-8 22.667 -21.333 34.667 -40 36
c-13.333 2 -28.666 -1.33301 -45.999 -10c-48.667 -26 -91 -73.667 -127 -143c-21.333 -44 -33.333 -82.333 -36 -115c-0.666992 -1.33301 -1 -3.33301 -1 -6v-6v-12c0 -48 25.333 -85.667 76 -113c22 -12.667 50 -22.667 84 -30zM345.996 192.998
c32 -8 67.002 -10.3281 105.002 -6.99512c3.33301 0 5.33301 -1.33301 6 -4c0 -3.33301 -1.66699 -5 -5 -5c-43.333 -2.66699 -80 0.333008 -110 9c-14.667 -24 -31.334 -44 -50.001 -60c-21.333 -18.667 -40.666 -27.334 -57.999 -26.001
c-8.66699 0 -14.834 3.66699 -18.501 11s-4.16699 15.666 -1.5 24.999c5.33301 19.333 21.666 39.333 48.999 60c-15.333 -5.33301 -39 -8.66602 -71 -9.99902s-64.667 1 -98 7c-20.667 -36 -40.667 -63.667 -60 -83c-0.666992 -0.666992 -2.33398 -2.16699 -5.00098 -4.5
s-4.66699 -4.16602 -6 -5.49902s-3.5 -3 -6.5 -5s-5.66699 -3.5 -8 -4.5s-4.83301 -1.83301 -7.5 -2.5s-5.5 -0.833984 -8.5 -0.500977s-5.83301 1.5 -8.5 3.5c-8 4 -12 13 -12 27c0 25.333 11 48.666 33 69.999c3.33301 3.33301 6.66602 2.66602 9.99902 -2.00098
c2 -2.66699 1.66699 -5.33398 -1 -8.00098c-20 -18.667 -30 -38.667 -30 -60c0 -5.33301 0.833008 -9.33301 2.5 -12s3.66699 -4.16699 6 -4.5s5 0 8 1s6.16699 2.66699 9.5 5s6.16602 4.5 8.49902 6.5s4.5 3.66699 6.5 5c20 20.667 39 46.334 57 77.001
c-109.333 23.333 -164 77 -164 161c0 1.33301 0.5 6.66602 1.5 15.999s2.16699 16.333 3.5 21c12 62.667 41 121.667 87 177c25.333 29.333 50.666 50.666 75.999 63.999c30.667 15.333 55.667 15.666 75 0.999023c24.667 -18 37 -57.333 37 -118
c0 -59.333 -13.667 -124 -41 -194c-18 -47.333 -38 -89 -60 -125c48.667 -8.66699 96.334 -9.33398 143.001 -2.00098c20 2.66699 35 7.33398 45 14.001c-21.333 14 -38 33.667 -50 59s-17.667 54 -17 86c0.666992 38 8.33398 74 23.001 108s33 62.333 55 85
c28.667 28.667 55.334 38.334 80.001 29.001c6.66699 -2 15.334 -8.66699 26.001 -20c18.667 -18 28.667 -48 30 -90c2.66699 -48.667 -8 -103.667 -32 -165c-12 -33.333 -30 -70 -54 -110z" />
    <glyph glyph-name="ee" unicode="ee" horiz-adv-x="258" 
d="M48 221h-4.99707c-0.666992 -0.666992 -1.33398 -1 -2.00098 -1c-2.66699 -0.666992 -6.33398 -2.5 -11.001 -5.5s-7.33398 -5.83301 -8.00098 -8.5c12 3.33301 20.667 8.33301 26 15zM173.003 237c-2.66699 -0.666992 -5.33105 -1.99902 -7.99805 -3.99902
s-4.83398 -4 -6.50098 -6s-3.5 -4.83301 -5.5 -8.5s-3.5 -6.33398 -4.5 -8.00098s-2.5 -4.5 -4.5 -8.5l-4 -8c17.333 11.333 28.666 24.333 33.999 39c0.666992 1.33301 1 3 1 5c-0.666992 0 -1.16699 -0.166992 -1.5 -0.5zM175.006 243.001
c4 0 5.99805 -1.33203 5.99805 -3.99902c2.66699 -6 0.333984 -14.333 -6.99902 -25c-6 -11.333 -19 -22.333 -39 -33c-5.33301 -16.667 -8 -28.667 -8 -36c0 -25.333 11.333 -35 34 -29c25.333 6.66699 51.666 23.334 78.999 50.001l19 20
c1.33301 1.33301 2.83301 1.66602 4.5 0.999023s2.83398 -1.83398 3.50098 -3.50098s0.333984 -3.16699 -0.999023 -4.5c-8.66699 -9.33301 -16 -16.5 -22 -21.5l-22.5 -18.5c-9 -7.33301 -18.333 -13.666 -28 -18.999s-19.5 -9.33301 -29.5 -12
c-0.666992 -0.666992 -1.66699 -1 -3 -1s-2.5 -0.166992 -3.5 -0.5s-2.16699 -0.5 -3.5 -0.5h-3c-12 0 -20.5 4 -25.5 12s-7.16699 17 -6.5 27s2.66699 20.667 6 32c-22.667 -11.333 -47.334 -18.666 -74.001 -21.999c-29.333 -4 -46 1.66699 -50 17
c-2.66699 13.333 0.333008 25.333 9 36s19 17.334 31 20.001h5c8.66699 0 11.334 -4.66699 8.00098 -14c-5.33301 -8.66699 -16.333 -15.334 -33 -20.001h-3c-2 -0.666992 -3.33301 -1.33398 -4 -2.00098h-1c-4 -8 -4 -16 0 -24l2 -2c10 -6.66699 30.333 -6.66699 61 0
c18.667 4.66699 36 11 52 19c12 32 25.667 51 41 57c2 1.33301 4 1.66602 6 0.999023z" />
    <glyph glyph-name="ef" unicode="ef" horiz-adv-x="326" 
d="M149 105c-10.667 -75.333 -15.667 -161.668 -15 -259.001c0 -41.333 1.66699 -80.333 5 -117c0 -2 0.333008 -6.5 1 -13.5s1.16699 -12.667 1.5 -17s1 -9.5 2 -15.5s2.5 -11 4.5 -15s4 -7.33301 6 -10c4.66699 4.66699 8.66699 12.667 12 24
c19.333 62.667 28.333 139.334 27 230.001c-1.33301 94.667 -16 159 -44 193zM15 189.998c16 8.66699 25.667 25.333 29 50c0.666992 5.33301 0.666992 9 0 11l-11 -10c-12 -16.667 -18 -33.667 -18 -51zM191 307.997l-11 -36.998
c31.333 35.333 51.666 69.666 60.999 102.999c2.66699 10.667 4.33398 20 5.00098 28v7c0 2 -0.666992 3.66699 -2 5c-5.33301 -2.66699 -12 -11.334 -20 -26.001c-12.667 -24 -23.667 -50.667 -33 -80zM21 171.999c4 -2 8.33105 -2.66895 12.998 -2.00195
c2.66699 0 7 0.666992 13 2c40.667 12.667 80.334 40.334 119.001 83.001c13.333 57.333 30 103 50 137c0 0.666992 1 3 3 7s3.83301 7 5.5 9s3.66699 4.66699 6 8s5 5.5 8 6.5s6.16699 0.833008 9.5 -0.5c4.66699 -0.666992 7 -5 7 -13v-8
c-1.33301 -24.667 -11.333 -52.334 -30 -83.001c-12.667 -22 -29 -44 -49 -66c-10 -41.333 -18.333 -85.666 -25 -132.999c9.33301 -9.33301 22.833 -14.666 40.5 -15.999s33.5 1.33398 47.5 8.00098c32.667 12 62 37 88 75h6c3.33301 -2 -0.333984 -9 -11.001 -21
s-20 -21.667 -28 -29c-17.333 -15.333 -37.666 -27.333 -60.999 -36s-46 -8.33398 -68 0.999023c24 -36 36.667 -98.333 38 -187c0 -104.667 -11.333 -187 -34 -247c0 -0.666992 -0.333008 -1.66699 -1 -3l-1.5 -3c-0.333008 -0.666992 -1 -1.83398 -2 -3.50098
s-1.83301 -2.83398 -2.5 -3.50098l-2.5 -2.5c-1 -1 -2 -1.5 -3 -1.5s-2.33301 -0.333008 -4 -1s-3.16699 -0.666992 -4.5 0c-6.66699 2.66699 -11.334 10.334 -14.001 23.001c-8.66699 32 -13 90.667 -13 176c0 82.667 5.66699 171.667 17 267
c-11.333 8 -15.666 13.333 -12.999 16c1.33301 2 3.33301 2.33301 6 1c2 0 5.33301 -1.33301 10 -4c3.33301 26.667 10.333 64.334 21 113.001c-18 -18 -38 -34.667 -60 -50c-28 -19.333 -50.667 -30 -68 -32c-10 -1.33301 -17.667 0.666992 -23 6h-1
c-6.66699 6.66699 -10 15.334 -10 26.001c0 14 3.16699 27.5 9.5 40.5s13.833 22.833 22.5 29.5l8 4h3c4 1.33301 7.16699 0.333008 9.5 -3s3.5 -7.5 3.5 -12.5s-0.5 -9.83301 -1.5 -14.5s-1.83301 -8.33398 -2.5 -11.001c-6.66699 -22 -18.667 -36.333 -36 -43v-2
c0.666992 -2 2.33398 -4.33301 5.00098 -7z" />
    <glyph glyph-name="el" unicode="el" horiz-adv-x="198" 
d="M322 648c2 8.66699 3.50098 17.833 4.50098 27.5s1.83301 21.5 2.5 35.5s-1 24.5 -5 31.5s-10.333 8.83301 -19 5.5c-9.33301 -5.33301 -19 -14.666 -29 -27.999c-31.333 -42.667 -56 -94.834 -74 -156.501s-34.333 -134.5 -49 -218.5
c-4.66699 -30.667 -9.66699 -67 -15 -109c91.333 100 152.666 237.333 183.999 412zM45.001 241.999c-3.33301 0 -8.00098 -6 -14.001 -18c-5.33301 -11.333 -9.33301 -21.333 -12 -30c12 12 20.333 23.667 25 35c2.66699 5.33301 3.33398 9.33301 2.00098 12zM313 757.999
c12.667 0 20.6719 -8.33203 24.0049 -24.999s2.83301 -38.334 -1.5 -65.001s-8.16602 -47.5 -11.499 -62.5s-7.33301 -29.833 -12 -44.5c-39.333 -149.333 -98.333 -266 -177 -350c-0.666992 -0.666992 -1 -1.66699 -1 -3c-8.66699 -84 -11.334 -152 -8.00098 -204
c2.66699 -30.667 6 -50.334 10 -59.001c0 -1.33301 0.666992 -3.16602 2 -5.49902s2.66602 -4.33301 3.99902 -6s2.16602 -3.5 2.49902 -5.5s-0.833984 -3.66699 -3.50098 -5c-2 0 -3.5 -0.166992 -4.5 -0.5s-2.33301 0.5 -4 2.5s-2.83398 3.66699 -3.50098 5
s-1.5 3.33301 -2.5 6s-1.83301 4.33398 -2.5 5.00098c0 0.666992 -0.333008 2.33398 -1 5.00098c-4.66699 14 -7.66699 33.333 -9 58c-2.66699 48 0.333008 113.333 9 196c-33.333 -31.333 -62.333 -51 -87 -59c-6.66699 -2 -12.334 -2.66699 -17.001 -2
c-4.66699 0 -9 1.66699 -13 5v2c-4 3.33301 -6 10.666 -6 21.999c0 19.333 6 40 18 62c9.33301 17.333 18.333 26 27 26c2.66699 0 4.66699 -0.333008 6 -1l2 -2l1 -1c10.667 -10 10.5 -22.833 -0.5 -38.5s-22.167 -26.834 -33.5 -33.501l-1 -0.5l-1 -0.5
c-1.33301 -10.667 -1.33301 -17.667 0 -21c0 -1.33301 0.333008 -2 1 -2v-1h2c3.33301 0 7 0.666992 11 2c27.333 8 59 29.667 95 65c14.667 134 37.667 251.333 69 352c26.667 80 55.667 135.667 87 167c11.333 11.333 21.333 17 30 17z" />
    <glyph glyph-name="er" unicode="er" horiz-adv-x="330" 
d="M14 184c6 2.66699 12 8.5 18 17.5s10 17.833 12 26.5v2v2v2c-16 -16 -26 -32.667 -30 -50zM171 299l0.00390625 -2.99707c0 -2.66699 -0.333008 -4.66699 -1 -6c0 -6.66699 3.16699 -13.5 9.5 -20.5s9.83301 -11.833 10.5 -14.5c0 -0.666992 0.333008 -1.5 1 -2.5
s1.33398 -1.83301 2.00098 -2.5c4 -11.333 6 -25.333 6 -42c0 -14.667 -2.33301 -34.667 -7 -60s-7.33398 -44 -8.00098 -56c-0.666992 -10 0.333008 -18.667 3 -26s8.33398 -10 17.001 -8c8.66699 1.33301 22 9.33301 40 24c25.333 23.333 47 47.333 65 72l8 12l6.5 10
l4.5 7c1.33301 2 2.66602 3.33301 3.99902 4s2.66602 0.666992 3.99902 0c4 -2.66699 4.33301 -4.33398 1 -5.00098v-1c-10 -16 -26.667 -37 -50 -63c-24.667 -29.333 -46.667 -49.333 -66 -60c-17.333 -8.66699 -29.333 -9.66699 -36 -3c-7.33301 6 -11 18.333 -11 37
c-0.666992 14 0.833008 33.833 4.5 59.5s5.5 44.5 5.5 56.5c-0.666992 23.333 -6 40 -16 50c-0.666992 1.33301 -1.83398 3.16602 -3.50098 5.49902s-2.83398 3.83301 -3.50098 4.5c-16 -28.667 -40 -58.334 -72 -89.001c-18.667 -17.333 -34 -28.333 -46 -33
c-11.333 -4.66699 -21.333 -4.33398 -30 0.999023s-13 13.666 -13 24.999c-0.666992 14 2.5 27.333 9.5 40s15.167 22.667 24.5 30c3.33301 4 7 6 11 6h2c4.66699 0 7 -5.33301 7 -16c0 -12 -4.66699 -24 -14 -36s-19 -19.667 -29 -23c2 -10.667 6.16699 -17.167 12.5 -19.5
s13.666 -1.16602 21.999 3.50098s15.666 9.33398 21.999 14.001s11.833 9.66699 16.5 15c24.667 24 44.667 49.333 60 76c6.66699 12 10.334 21 11.001 27v3c-0.666992 2 -0.666992 4 0 6l0.5 1l0.5 1c0 4.66699 3.33301 6.66699 10 6c2 -1.33301 3 -2.33301 3 -3
c1.33301 -2 2 -3.33301 2 -4z" />
    <glyph glyph-name="et" unicode="et" horiz-adv-x="343" 
d="M306 491c24 48.667 42 107.667 54 177c2.66699 17.333 3.66699 30.333 3 39c0 2 -0.333008 3.33301 -1 4v1c-2 0 -6 -7.66699 -12 -23c-14.667 -38.667 -30.667 -104.667 -48 -198h4zM302 483l-1.00098 -0.000976562l-1 -2v-3
c0.666992 2.66699 1.33398 4.33398 2.00098 5.00098zM63.999 265.999c-6.66699 -3.33301 -16.333 -11.334 -29 -24.001c4 0 9.83301 2.83301 17.5 8.5s11.5 10.834 11.5 15.501zM362 717.998c4 0 6 -3.3291 6 -9.99609c0.666992 -9.33301 -0.333008 -22.666 -3 -39.999
c-8.66699 -61.333 -26.334 -120.333 -53.001 -177c70.667 4 118 6.33301 142 7c18.667 1.33301 35.334 1.66602 50.001 0.999023c4 0 7 -0.166992 9 -0.5s4.5 -0.666016 7.5 -0.999023s5 -1.33301 6 -3s1.16699 -3.5 0.5 -5.5
c-0.666992 -3.33301 -2.66699 -4.66602 -6 -3.99902c-1.33301 0.666992 -3 1 -5 1c-0.666992 0 -5.33398 0.666992 -14.001 2c-14 1.33301 -54.333 0.333008 -121 -3c-15.333 -0.666992 -39.666 -2 -72.999 -4l-14 -26c-24.667 -142.667 -42.667 -317.334 -54 -524.001
c0 -3.33301 -2 -5 -6 -5c-4 0.666992 -6 2.66699 -6 6c14.667 200.667 33.667 369.667 57 507c-43.333 -79.333 -100 -152.666 -170 -219.999c-30.667 -28.667 -55 -47.334 -73 -56.001c-23.333 -10 -37 -9 -41 3v1.5v1.5v2c-0.666992 3.33301 -1 8 -1 14
c2 34 16.333 61.333 43 82c8 5.33301 14 8.33301 18 9h8c0.666992 0 2 -1 4 -3c0.666992 0 1 -0.333008 1 -1l1 -1v-3c0 -10.667 -5.16699 -19.5 -15.5 -26.5s-21.5 -11.5 -33.5 -13.5c0 -0.666992 -0.666992 -1 -2 -1c-8 -16.667 -12 -31 -12 -43v-12
c0.666992 -2.66699 2.16699 -4.33398 4.5 -5.00098s5.33301 -0.333984 9 0.999023l11 4c3.66699 1.33301 7.5 3.33301 11.5 6l9 6c2 1.33301 3.66699 2.66602 5 3.99902c29.333 19.333 61 47.333 95 84c53.333 57.333 97.333 119.666 132 186.999
c1.33301 2.66699 2.33301 6.66699 3 12s1.33398 9 2.00098 11l-75 -3c-97.333 0.666992 -145.666 6.66699 -144.999 18c1.33301 2.66699 3.66602 3.66699 6.99902 3c17.333 -8.66699 50.666 -13 99.999 -13h38c15.333 0 41 1 77 3c16.667 91.333 32.667 158.333 48 201
c0.666992 0.666992 1.66699 3 3 7s2.5 6.83301 3.5 8.5s2.33301 3.66699 4 6s3.5 4.16602 5.5 5.49902h2z" />
    <glyph glyph-name="ett" unicode="ett" horiz-adv-x="412" 
d="M382 456c10 30 21.333 67.666 34 112.999c10 36.667 15 62.334 15 77.001v14c-7.33301 -13.333 -14 -29.833 -20 -49.5s-10.5 -35.167 -13.5 -46.5s-7.5 -31 -13.5 -59s-9.33301 -44.667 -10 -50c2 0.666992 4.66699 1 8 1zM361 385.999
c1.33301 4.66699 3.33301 11.167 6 19.5l7.5 23l6.5 19.5h-9c-2 -10 -5.66699 -30.667 -11 -62zM341 325.999c3.33301 23.333 10.667 63.668 22 121.001l-73.5 -4.5c-37.667 -2.33301 -66.167 -3.83301 -85.5 -4.5c-0.666992 -1.33301 -3.83398 -8 -9.50098 -20l-12.5 -27
c-22 -109.333 -31.333 -219.333 -28 -330v-11c0 -6 0.166992 -11.333 0.5 -16s0.833008 -10.334 1.5 -17.001s1.5 -12.334 2.5 -17.001s2.33301 -9 4 -13s3.66699 -6.83301 6 -8.5s5.16602 -1.83398 8.49902 -0.500977c6.66699 3.33301 14 11 22 23
c18.667 26.667 40.334 67.334 65.001 122.001c14.667 32.667 31.334 75.334 50.001 128.001zM198.001 462.001c-2 -8 -3.99805 -13.333 -5.99805 -16h2l14 33c7.33301 17.333 12.666 30.333 15.999 39s7.16602 20.167 11.499 34.5s7.83301 27.833 10.5 40.5
c2.66699 14.667 4 22.667 4 24c-1.33301 -4 -3.83301 -9.83301 -7.5 -17.5l-7.5 -15.5c-12.667 -32 -25 -72.667 -37 -122zM13.0029 193.001c12 10 18.001 23.334 18.001 40.001c-0.666992 2.66699 -1.33398 4.66699 -2.00098 6c-5.33301 -6 -10 -19 -14 -39
c0 -0.666992 -0.333008 -1.33398 -1 -2.00098zM532.004 439.002c0 -0.666992 -0.504883 -1.50488 -1.50488 -2.50488s-1.83301 -0.833008 -2.5 0.5l-6 -4c-3.33301 -2 -5.33301 -0.666992 -6 4c0 2 0.666992 3.33301 2 4c2.66699 2 4.33398 3.33301 5.00098 4
c-0.666992 0 -2 0.333008 -4 1c-10.667 3.33301 -29 5 -55 5c-14 0 -39.667 -0.333008 -77 -1c-10.667 -34.667 -22 -69 -34 -103c-20.667 -128 -29.667 -233 -27 -315c0.666992 -54.667 5.66699 -93 15 -115c0.666992 -0.666992 1.66699 -1.83398 3 -3.50098s2 -3 2 -4
v-3.5c-2.66699 -2.66699 -5.16699 -3 -7.5 -1s-4.16602 4.66699 -5.49902 8c-2.66699 4.66699 -5.33398 13 -8.00098 25c-18 78 -15 196.667 9 356c-38.667 -107.333 -69.667 -185.666 -93 -234.999c-18.667 -39.333 -33.667 -64.666 -45 -75.999
c-4.66699 -6 -10.167 -10 -16.5 -12s-13.166 -0.333008 -20.499 5c-2 2 -3.83301 4.66699 -5.5 8l-4.5 9c-1.33301 2.66699 -2.5 6.33398 -3.5 11.001s-1.66699 8.33398 -2 11.001l-1.5 12.5c-0.666992 5.66699 -1 9.5 -1 11.5s-0.166992 6.16699 -0.5 12.5
s-0.5 10.5 -0.5 12.5c-4 94 1.66699 186 17 276c-26.667 -54 -55 -104.667 -85 -152c-14 -22.667 -26 -39.334 -36 -50.001c-2.66699 -2.66699 -6 -4.66699 -10 -6l-1.5 -0.5c-1 -0.333008 -1.83301 -0.5 -2.5 -0.5h-2c-0.666992 0.666992 -1.33398 1 -2.00098 1
c-1.33301 0 -2 0.333008 -2 1c-0.666992 0 -1 0.166992 -1 0.5s-0.333008 0.5 -1 0.5c-9.33301 9.33301 -14 22 -14 38c-0 32 6.33301 57 19 75c4.66699 6.66699 10.334 8.33398 17.001 5.00098c4 0 6.66699 -5.33301 8 -16c0 -11.333 -3.33301 -22.333 -10 -33
s-13.667 -17.667 -21 -21c-0.666992 -2 -1 -5.33301 -1 -10c0 -14.667 2.66699 -24 8 -28l1 -2h1h1c4.66699 1.33301 11 7 19 17c10 11.333 19.167 23.5 27.5 36.5s17.166 27.833 26.499 44.5s16.666 30.167 21.999 40.5l23.5 47.5l21.5 44
c2.66699 16.667 7.33398 39 14.001 67c-9.33301 -0.666992 -22.166 -1.5 -38.499 -2.5s-31.333 -1.83301 -45 -2.5s-25.167 -1.33398 -34.5 -2.00098c-2.66699 0 -5.83398 -0.166992 -9.50098 -0.5s-6.16699 -0.5 -7.5 -0.5h-5c-3.33301 0 -5 1.66699 -5 5
c0 2 1.33301 3 4 3c1.33301 0.666992 3.33301 1 6 1c0.666992 0 2.83398 0.166992 6.50098 0.5s6.83398 0.5 9.50098 0.5c20 0 60 1.66699 120 5l6 22c18 68 36 118.667 54 152l1 2.5c0.666992 1.66699 1.16699 2.83398 1.5 3.50098s1 1.83398 2 3.50098
s1.83301 2.83398 2.5 3.50098l3 3c1.33301 1.33301 2.5 2 3.5 2s2.16699 0.333008 3.5 1s2.66602 0.333984 3.99902 -0.999023c4 -2 6 -7.33301 6 -16c-0.666992 -16.667 -5 -36.667 -13 -60c-11.333 -34.667 -25.333 -71.334 -42 -110.001l-1 -2
c-0.666992 -1.33301 -1 -2.33301 -1 -3c18 0.666992 45 2 81 4s61.667 3.66699 77 5c16.667 82.667 33.334 145.667 50.001 189c8.66699 24 16.334 29.667 23.001 17v-16c-3.33301 -31.333 -14.666 -78.333 -33.999 -141l-15 -49c36 1.33301 60.667 2 74 2
c4 -0.666992 9.16699 -1 15.5 -1s11.666 -0.166992 15.999 -0.5s9 -0.666016 14 -0.999023s9.33301 -1.33301 13 -3s6.83398 -3.83398 9.50098 -6.50098v-1v-1c1.33301 -1.33301 1.33301 -3 0 -5z" />
    <glyph glyph-name="ff" unicode="ff" horiz-adv-x="375" 
d="M252 101c-10 40 -19.999 66.998 -29.999 80.998c-11.333 -76.667 -19 -147 -23 -211c-4.66699 -79.333 -4 -137.666 2 -174.999c4 -20.667 8.66699 -32.667 14 -36c13.333 0 24.666 17 33.999 51c12 44.667 18 92.334 18 143.001s-5 99.667 -15 147zM25.001 -215.002
c20.667 126 13.6709 244.998 -20.9961 356.998c-8.66699 -49.333 -14.834 -85.666 -18.501 -108.999s-7.83398 -56.166 -12.501 -98.499s-7.33398 -81.166 -8.00098 -116.499c-2.66699 -70 1.66602 -116.333 12.999 -139c2 -4 4 -6 6 -6c1.33301 -2 4 0 8 6s7 11 9 15
c10 23.333 18 53.666 24 90.999zM72.0049 401.996c-11.333 -22 -23.667 -60.333 -37 -115c-1.33301 -8.66699 -3.33301 -18.334 -6 -29.001s-5.16699 -21.5 -7.5 -32.5l-6.5 -29.5c32.667 32.667 52.667 85.334 60 158.001c0.666992 10 1 17.667 1 23
c0 8.66699 -0.666992 16 -2 22c0 0.666992 -0.666992 1.66699 -2 3zM303.004 487.996c-24 -55.333 -44.334 -120.332 -61.001 -194.999c34.667 48.667 61.667 102.667 81 162c6.66699 19.333 11.334 38.333 14.001 57c3.33301 17.333 4 28.666 2 33.999
c-11.333 -10.667 -23.333 -30 -36 -58zM226.003 200.997c21.333 -10.667 45.0049 -17.5 71.0049 -20.5s52.667 -0.5 80 7.5c2.66699 0.666992 4.16699 0.333984 4.5 -0.999023s0.5 -4 0.5 -8c-52 -14.667 -102 -11.334 -150 9.99902c4 -4 9 -13.667 15 -29
c18 -42 29 -100.667 33 -176c3.33301 -80 -3.66699 -144 -21 -192c-9.33301 -24 -21 -38.333 -35 -43c-8.66699 -3.33301 -16.334 1.66699 -23.001 15c-7.33301 17.333 -11.666 47.333 -12.999 90c-2.66699 84 6.33301 198 27 342
c-0.666992 0.666992 -1.83398 1.66699 -3.50098 3s-2.83398 2.33301 -3.50098 3s-1.5 1.83398 -2.5 3.50098s-0.833008 2.83398 0.5 3.50098c1.33301 2 5 1.66699 11 -1c3.33301 20.667 6 36.334 8 47.001l-8 -8c-62.667 -65.333 -131.667 -95 -207 -89l-0.5 -1.5
c-0.333008 -1 -0.5 -1.83301 -0.5 -2.5c20.667 -63.333 32.834 -130.833 36.501 -202.5s-2.5 -143.5 -18.5 -215.5c-8 -32.667 -17.333 -55.334 -28 -68.001c-6 -5.33301 -11.333 -7 -16 -5c-2.66699 0 -5 0.833008 -7 2.5s-3.83301 3.83398 -5.5 6.50098s-3 5.5 -4 8.5
s-2 6.66699 -3 11s-1.66699 8 -2 11s-0.833008 6.5 -1.5 10.5s-1 6.66699 -1 8c-6 50.667 -5 114.334 3 191.001c10.667 127.333 31.667 253 63 377c1.33301 4.66699 3.83301 14.5 7.5 29.5s6.66699 26.333 9 34s5.66602 17.167 9.99902 28.5s8.83301 20.666 13.5 27.999
c2 3.33301 5 5 9 5c10 0 15 -13 15 -39c0 -36.667 -8 -76 -24 -118c-14 -38 -31.333 -63.667 -52 -77c-0.666992 -2 -1.33398 -5 -2.00098 -9s-1.33398 -7 -2.00098 -9c74.667 -4.66699 141.334 25 200.001 89c2 2 4.83301 5.16699 8.5 9.5s6.5 7.83301 8.5 10.5
c19.333 90 42 163.667 68 221c12 25.333 22 42.666 30 51.999c0.666992 2 2.16699 3.83301 4.5 5.5s4.83301 3.33398 7.5 5.00098s5.16699 2.16699 7.5 1.5s4.16602 -3 5.49902 -7c1.33301 -3.33301 2 -6.33301 2 -9c0.666992 -8.66699 0 -19 -2 -31
c-16.667 -86.667 -53.334 -165.334 -110.001 -236.001c-2.66699 -13.333 -6.66699 -36 -12 -68c0 -0.666992 -0.166992 -1.33398 -0.5 -2.00098s-0.5 -1.33398 -0.5 -2.00098z" />
    <glyph glyph-name="ft" unicode="ft" horiz-adv-x="363" 
d="M-3 106c-13.333 -84.667 -20 -191.334 -20 -320.001c0 -31.333 2.33301 -51.333 7 -60v-1v-1c1.33301 0.666992 3 2.33398 5 5.00098c9.33301 14.667 18.333 40.334 27 77.001c12.667 55.333 19 110.666 19 165.999c0 70 -12.667 114.667 -38 134zM45 284
c-4 -8.66699 -7.50098 -17.667 -10.501 -27l-10 -32l-8.5 -28c28 35.333 52 79 72 131c7.33301 22 11.333 35 12 39c0 0.666992 0.333008 1.5 1 2.5s1 1.83301 1 2.5l-2 -1c-19.333 -16.667 -37.666 -45.667 -54.999 -87zM363.999 599
c-14.667 -44.667 -27.333 -95.667 -38 -153c2 2 3.33301 4 4 6c19.333 32 34.5 62 45.5 90s17.167 59.333 18.5 94c0 5.33301 -0.333008 9 -1 11c0 4.66699 -0.666992 7.66699 -2 9c-8.66699 -8.66699 -17.667 -27.667 -27 -57zM0 117
c32.667 -17.333 48.9971 -65 48.9971 -143c0 -74 -10.667 -144.667 -32 -212l-7 -20c-7.33301 -20 -16 -30 -26 -30c-3.33301 0 -6.16602 1.33301 -8.49902 4s-3.83301 5.16699 -4.5 7.5l-3 11c-1.33301 5 -2 7.83301 -2 8.5c-2 12.667 -3 27 -3 43
c0 129.333 7.66699 238.666 23 327.999h-3c-1.33301 0 -2.66602 1 -3.99902 3v-1c-2 0.666992 -2.83301 2 -2.5 4s1.5 3.33301 3.5 4c0.666992 0 2 0.166992 4 0.5s3.66699 0.833008 5 1.5c15.333 84 36.666 151 63.999 201l11 19c2 2.66699 5 7.16699 9 13.5
s7.83301 11.5 11.5 15.5s7.83398 7 12.501 9c3.33301 1.33301 6 1.5 8 0.5s3.33301 -2.66699 4 -5s1 -4.83301 1 -7.5v-2.5v-2.5c-1.33301 -9.33301 -5.33301 -23.333 -12 -42c-15.333 -40.667 -35 -78.667 -59 -114c-10 -14 -19 -24.667 -27 -32l-10 -50
c40 14 88 46 144 96c46 42.667 89.667 91.334 131 146.001c16 22 27.333 38.333 34 49c0 1.33301 0.166992 2.5 0.5 3.5l1 3c0.333008 1 0.5 2 0.5 3s0.333008 1.83301 1 2.5h-15h-76c-88 2.66699 -132.333 8.66699 -133 18c0.666992 2.66699 2.66699 3.66699 6 3
c31.333 -10.667 73.666 -16 126.999 -16c12 0 22 0.166992 30 0.5s18.333 0.666016 31 0.999023s22.667 0.5 30 0.5c12.667 66 26.334 120.333 41.001 163c10.667 34 21.334 55 32.001 63c1.33301 0.666992 3 1 5 1c8 0 12 -5.66699 12 -17v-13
c-1.33301 -33.333 -8.66602 -66.333 -21.999 -99c-10.667 -28.667 -27.334 -61.667 -50.001 -99c28 1.33301 63.667 2 107 2c2 0 5.5 -0.166992 10.5 -0.5s8.5 -0.5 10.5 -0.5s5.16699 -0.166992 9.5 -0.5s7.5 -0.666016 9.5 -0.999023s4.5 -0.833008 7.5 -1.5
s5.5 -1.5 7.5 -2.5s4 -2.16699 6 -3.5c5.33301 -3.33301 6.33301 -6.66602 3 -9.99902c-3.33301 -1.33301 -5.66602 -1 -6.99902 1c-0.666992 2 -2 3.66699 -4 5s-5 2.33301 -9 3s-8.5 1.33398 -13.5 2.00098s-10.667 1.16699 -17 1.5s-12.333 0.5 -18 0.5h-18.5h-17h-14.5
h-10.5c-4.66699 0 -12 -0.166992 -22 -0.5s-17.667 -0.5 -23 -0.5c-1.33301 -1.33301 -3.33301 -4 -6 -8c-9.33301 -41.333 -20.333 -112 -33 -212c-14 -116 -26 -247 -36 -393c-0.666992 -5.33301 -3.33398 -8 -8.00098 -8c-4 0 -6 2.66699 -6 8
c4.66699 99.333 17.667 230.666 39 393.999c9.33301 75.333 18.666 137.666 27.999 186.999l-24 -34c-39.333 -52.667 -83.666 -101.667 -132.999 -147c-56 -50 -106 -83.333 -150 -100v-2z" />
    <glyph glyph-name="gt" unicode="gt" horiz-adv-x="362" 
d="M19 -252c2 -10.667 6.00195 -16 12.002 -16c9.33301 0 21.666 5.66699 36.999 17c57.333 42 95 123 113 243c4.66699 32.667 7.33398 65.667 8.00098 99c0 16.667 -0.666992 32.334 -2 47.001c0 2.66699 -0.333008 7 -1 13c-66.667 -130 -113.334 -230.667 -140.001 -302
c-0.666992 -1.33301 -2.66699 -6.33301 -6 -15l-6.5 -17c-1 -2.66699 -2.83301 -7.83398 -5.5 -15.501s-4.33398 -13.667 -5.00098 -18l-2.5 -16.5c-1 -6.66699 -1.5 -13 -1.5 -19zM88.002 438l-10.5088 0.5c-7 0.333008 -12.167 1.16602 -15.5 2.49902
s-4.66602 3.33301 -3.99902 6c0.666992 3.33301 2.66699 4.66602 6 3.99902c12.667 -4.66699 24.334 -7 35.001 -7c10 -0.666992 18.333 -1 25 -1c28 0 67 3 117 9s79 9.33301 87 10c3.33301 12.667 8.5 34.834 15.5 66.501s12.833 55.834 17.5 72.501
c2 5.33301 4.66699 13 8 23l9 26c2.66699 7.33301 6 14.333 10 21c8.66699 16 15.667 19 21 9v-9c-3.33301 -34 -15.666 -78.333 -36.999 -133c-9.33301 -24 -20 -49.333 -32 -76c20 2 38 2.66699 54 2c28.667 0 49 -3.66699 61 -11
c3.33301 -2.66699 4.33301 -5.33398 3 -8.00098s-3.33301 -3.33398 -6 -2.00098h-1c-22 11.333 -59.667 15.333 -113 12c-0.666992 -0.666992 -1 -1.33398 -1 -2.00098s-0.333008 -1 -1 -1c-19.333 -102.667 -37 -229 -53 -379c0 -7.33301 -1.83301 -33.833 -5.5 -79.5
s-5.5 -80.5 -5.5 -104.5v-30c0 -4.66699 -2.16699 -7 -6.5 -7s-6.5 2.33301 -6.5 7c0.666992 6.66699 1.33398 16.667 2.00098 30c0 38.667 5 112.667 15 222c16 128.667 31 231.334 45 308.001c-6.66699 -15.333 -25 -52.333 -55 -111l-58 -115
c-2 -3.33301 -4.66699 -8.16602 -8 -14.499s-6 -11.166 -8 -14.499c4.66699 -19.333 7 -43.666 7 -72.999c0 -38 -2.66699 -75.333 -8 -112s-13.833 -72 -25.5 -106s-27.5 -63.833 -47.5 -89.5s-43.333 -44.167 -70 -55.5c-7.33301 -2.66699 -13 -4 -17 -4h-2.5h-2.5
c-10 0 -16 5.5 -18 16.5s-0.5 26 4.5 45s9 32.667 12 41l10.5 29.5c28.667 72.667 77.667 176.667 147 312c-3.33301 16.667 -7.33301 26 -12 28h-1c-2.66699 0.666992 -5.33398 1.16699 -8.00098 1.5s-5.33398 0.333008 -8.00098 0l-8 -1
c-2.66699 -0.333008 -5.16699 -0.833008 -7.5 -1.5s-5 -1.5 -8 -2.5s-5.33301 -1.83301 -7 -2.5s-4 -1.5 -7 -2.5s-5.16699 -1.83301 -6.5 -2.5l-22.5 -8.5l-25.5 -9.5c-7.33301 -2.66699 -14.666 -4.66699 -21.999 -6c-6 -1.33301 -12 -2 -18 -2
c-3.33301 0 -6.66602 0.666992 -9.99902 2s-6 3.5 -8 6.5s-3 6.5 -3 10.5c0 13.333 11.333 26.666 34 39.999c12.667 7.33301 26.834 11.833 42.501 13.5s29.834 -1.5 42.501 -9.5c6.66699 -5.33301 8.66699 -9.33301 6 -12c-2 -2.66699 -4 -2.66699 -6 0
c-9.33301 8.66699 -20.5 12.334 -33.5 11.001s-25.333 -4.83301 -37 -10.5s-20.834 -12.167 -27.501 -19.5c-8.66699 -8 -11 -14.333 -7 -19l1 -1c0.666992 0 1.83398 -0.333008 3.50098 -1s3.16699 -1 4.5 -1c4 -0.666992 9 -0.333984 15 0.999023
c8.66699 2 19.5 5.16699 32.5 9.5l39.5 13.5c13.333 4.66699 25.333 7.66699 36 9s19.334 1.33301 26.001 0l2 -1c6 -2.66699 10.667 -10.334 14 -23.001l5.5 11l4.5 9l29.5 55.5l31.5 59l28 54.5c10.667 21.333 20 41 28 59c4.66699 8.66699 8.66699 18 12 28
c-15.333 -1.33301 -36.333 -3.66602 -63 -6.99902s-51.5 -6 -74.5 -8s-44.833 -3 -65.5 -3c-12 0 -20.333 0.333008 -25 1c-1.33301 0 -3.16602 0.166992 -5.49902 0.5s-4.16602 0.5 -5.49902 0.5zM343.993 488c0 -0.666992 -0.166992 -1.33398 -0.5 -2.00098
s-0.833008 -1 -1.5 -1c0.666992 0 1 0.333008 1 1s0.333008 1.33398 1 2.00098z" />
    <glyph glyph-name="gh" unicode="gh" horiz-adv-x="470" 
d="M190 -42c13.333 88.667 13.002 162.999 -0.998047 222.999l-2 5c-43.333 -84 -75.333 -167.333 -96 -250c-14.667 -63.333 -20 -112.666 -16 -147.999c2.66699 -28 9.66699 -42 21 -42c4 0 8.16699 1.5 12.5 4.5s7.66602 6 9.99902 9s5.16602 7 8.49902 12
s5.33301 8.16699 6 9.5c26 40.667 45 99.667 57 177zM359.002 577.999c-8 -25.333 -14.332 -51.668 -18.999 -79.001c27.333 58.667 44.666 103.667 51.999 135c2 8 3.33301 14 4 18v7c-5.33301 -3.33301 -11.333 -12.666 -18 -27.999c-6 -14 -10.667 -25.667 -14 -35z
M433.003 165.997c12.667 2 25.668 9 39.001 21h1c2.66699 2.66699 5 2.33398 7 -0.999023c2 -2 2 -4 0 -6c-17.333 -16 -35.333 -24 -54 -24c-22.667 0 -44 12.333 -64 37c-2.66699 4 -6 6 -10 6c-4.66699 0 -11.667 -5.66699 -21 -17c-4 -6 -6 -10.333 -6 -13
c-10 -16 -19.333 -35 -28 -57c-1.33301 -2.66699 -3.5 -3.66699 -6.5 -3s-4.5 2.66699 -4.5 6c0 9.33301 0.333008 19.166 1 29.499s1.5 20.666 2.5 30.999s2 20 3 29l3.5 31c1.33301 11.667 2.33301 21.5 3 29.5c7.33301 78 14.333 134.333 21 169
c-0.666992 -0.666992 -15 -26 -43 -76c-10.667 -18.667 -38.334 -73 -83.001 -163l3 -13c14.667 -61.333 15.334 -136.666 2.00098 -225.999c-12 -78.667 -31.333 -138.334 -58 -179.001c-8.66699 -13.333 -16.667 -23.333 -24 -30c-6 -5.33301 -12.667 -8.33301 -20 -9
c-4 0 -7.66699 1.33301 -11 4s-6 5.5 -8 8.5s-3.66699 7.16699 -5 12.5l-3 12c-0.666992 2.66699 -1.33398 7 -2.00098 13c-3.33301 37.333 2 87.333 16 150c20 82 53.333 168.667 100 260v1c-5.33301 12 -14 17.333 -26 16c-6 -0.666992 -11.667 -2 -17 -4
c-11.333 -3.33301 -28.333 -10.666 -51 -21.999s-40.334 -19 -53.001 -23c-4.66699 -1.33301 -9.33398 -2.16602 -14.001 -2.49902s-9.16699 0.5 -13.5 2.5s-6.83301 5 -7.5 9c-5.33301 14 1.66699 30.667 21 50c12 10.667 28 17.667 48 21s39 1.66602 57 -5.00098
c8.66699 -4 12.334 -7.66699 11.001 -11c-2 -2 -4 -2.83301 -6 -2.5s-5 1.33301 -9 3s-6.66699 2.5 -8 2.5c-3.33301 0.666992 -9 1 -17 1c-47.333 -2.66699 -74.666 -18.667 -81.999 -48v-5h1c4.66699 0 9.33398 0.5 14.001 1.5s8.5 2 11.5 3s7 2.5 12 4.5
s8.83301 3.33301 11.5 4c34 14 57.667 23 71 27c17.333 4.66699 30.666 4.66699 39.999 0c3.33301 -2 6.66602 -6 9.99902 -12c24.667 50 51.667 101 81 153l55 104c7.33301 45.333 16 84.333 26 117l6 18c6.66699 20 14.334 37.667 23.001 53
c13.333 20 22.333 23.333 27 10v-11c-4 -18.667 -9.5 -38.5 -16.5 -59.5s-13 -37 -18 -48l-24.5 -52.5l-6 -12.5c-2.66699 -5.66699 -5 -9.83398 -7 -12.501c-16.667 -95.333 -29 -201.666 -37 -318.999c16 27.333 28.333 45 37 53c6.66699 4.66699 12.667 7 18 7
c3.33301 0.666992 6.66602 0 9.99902 -2s6.83301 -5.5 10.5 -10.5s5.83398 -7.83301 6.50098 -8.5c12.667 -12.667 25.667 -20 39 -22h3.5h4.5h7z" />
    <glyph glyph-name="ht" unicode="ht" horiz-adv-x="334" 
d="M104 538c-37.333 -98.667 -64.334 -208 -81.001 -328c50.667 89.333 89 176.333 115 261c13.333 52.667 18 93 14 121c-0.666992 14.667 -2.66699 22 -6 22s-8.66602 -6.66699 -15.999 -20c-8 -13.333 -16.667 -32 -26 -56zM362.999 678
c-12.667 -24.667 -26.333 -70.333 -41 -137c-6.66699 -27.333 -11.667 -55 -15 -83l25 82c15.333 53.333 25.333 94 30 122c0.666992 6 1 10.333 1 13v3zM447 434.001c-20 10 -47.6729 15.001 -83.0059 15.001c-6.66699 0.666992 -16.334 0.5 -29.001 -0.5
s-21.667 -1.5 -27 -1.5c-0.666992 -2.66699 -1.5 -5.66699 -2.5 -9s-2 -6.33301 -3 -9s-2 -5.66699 -3 -9s-1.83301 -6.33301 -2.5 -9c-22.667 -166.667 -34 -324.334 -34 -473.001c0 -4 -2 -6 -6 -6s-6 2 -6 6c0 52 2.66699 119.667 8 203
c4.66699 71.333 11.334 138.666 20.001 201.999c0 2 0.333008 5 1 9s1 7 1 9c-28 -89.333 -53.333 -158 -76 -206c-0.666992 -0.666992 -1.66699 -2.5 -3 -5.5l-3.5 -8c-1 -2.33301 -2.5 -5.33301 -4.5 -9s-4 -6.83398 -6 -9.50098l-6.5 -8.5
c-2.33301 -3 -4.66602 -5.33301 -6.99902 -7s-4.83301 -3 -7.5 -4s-5.16699 -1.16699 -7.5 -0.5s-4.83301 2.33398 -7.5 5.00098c-2.66699 3.33301 -5 7.33301 -7 12l-5 13c-2.66699 6 -4.66699 10.667 -6 14s-3.66602 8.16602 -6.99902 14.499s-6.5 11 -9.5 14
s-6.66699 5.83301 -11 8.5s-9.16602 3.83398 -14.499 3.50098s-10.666 -2.16602 -15.999 -5.49902c-18.667 -10.667 -40 -35.334 -64 -74.001c-2 -2.66699 -4.5 -3.66699 -7.5 -3s-4.5 2.66699 -4.5 6c7.33301 144.667 38 288.667 92 432c13.333 35.333 25.333 59.333 36 72
c7.33301 7.33301 12.666 11 15.999 11c2.66699 0 5.16699 -0.5 7.5 -1.5s4 -2.83301 5 -5.5s1.83301 -5 2.5 -7s1.33398 -4.83301 2.00098 -8.5s1 -6.16699 1 -7.5c4 -32.667 -1 -75 -15 -127c-25.333 -80 -68 -174.333 -128 -283c-2 -11.333 -3.66699 -28.666 -5 -51.999
c22 29.333 40.667 48.333 56 57c6.66699 4 13 6.16699 19 6.5s11.5 -1.16699 16.5 -4.5s9.5 -6.83301 13.5 -10.5s7.66699 -8.83398 11 -15.501l8 -16c2 -4 4 -9 6 -15c0.666992 -0.666992 1.5 -2.5 2.5 -5.5l2.5 -7.5c0.666992 -2 1.66699 -4.16699 3 -6.5
s2.83301 -3.83301 4.5 -4.5s3.5 -1 5.5 -1c4 1.33301 7 3.66602 9 6.99902c6.66699 6.66699 15.334 20.334 26.001 41.001c24.667 52.667 54 133.667 88 243l7 44c-36.667 -3.33301 -62 -5 -76 -5c-4 0 -8.5 0.166992 -13.5 0.5s-10.5 0.833008 -16.5 1.5s-10.667 2 -14 4
s-4.33301 4.33301 -3 7s3.33301 3.33398 6 2.00098h1l5 -3c2 0 5 -0.5 9 -1.5s7 -1.83301 9 -2.5c6.66699 -0.666992 12.334 -1 17.001 -1c10.667 0 36.334 1.66699 77.001 5c18 97.333 35.667 169 53 215c5.33301 16 10.666 24 15.999 24c4 0 6 -3 6 -9v-7
c0 -7.33301 -2 -20 -6 -38c-7.33301 -32 -16 -64.667 -26 -98l-27 -86h2c23.333 2 40.333 3 51 3c32.667 0 60 -3.66699 82 -11c8 -3.33301 11.333 -6.5 10 -9.5s-3.33301 -3.83301 -6 -2.5h-1z" />
    <glyph glyph-name="id" unicode="id" horiz-adv-x="326" 
d="M30 255c-1.33301 -0.666992 -4 -4.33301 -8 -11s-7.33301 -9.66699 -10 -9c-3.33301 2.66699 -3.83301 6.5 -1.5 11.5s6 9.66699 11 14s8.5 5.5 10.5 3.5c2.66699 -2 2 -5 -2 -9zM123 141.001c0 -6 1.00098 -8.99609 3.00098 -8.99609h3c2.66699 0 8.66699 3.33301 18 10
c16.667 12.667 33.667 31.334 51 56.001c-25.333 8 -41 13.333 -47 16l-0.5 -0.5c-0.333008 -0.333008 -0.5 -0.833008 -0.5 -1.5l-1 -1c-0.666992 -0.666992 -1.5 -1.33398 -2.5 -2.00098s-1.83301 -1.33398 -2.5 -2.00098l-2 -2c-2.66699 0 -6.33398 -6.66699 -11.001 -20
c-4 -8.66699 -6.66699 -18.334 -8 -29.001c0 -0.666992 -0.166992 -1.83398 -0.5 -3.50098s-0.5 -2.83398 -0.5 -3.50098v-4c0 -2 0.333008 -3.33301 1 -4zM18.001 384.005c4 -74.667 55.333 -131.333 154 -170c7.33301 -2.66699 18 -6 32 -10
c51.333 74.667 86.333 158 105 250c2 24.667 3 38 3 40c0 37.333 -6 69.333 -18 96s-31 43.667 -57 51c-47.333 14 -93 -4.33301 -137 -55c-31.333 -36 -54 -74.333 -68 -115c-11.333 -34.667 -16 -63.667 -14 -87zM16.001 114.006
c-4.66699 0 -9.00195 1.16602 -13.002 3.49902s-7 5.5 -9 9.5s-2.66699 8.33301 -2 13c0 5.33301 0.5 10.833 1.5 16.5s2.33301 11.167 4 16.5s2.83398 9.33301 3.50098 12c1.33301 2 3 3.16699 5 3.5s3.83301 -0.166992 5.5 -1.5s1.83398 -3.33301 0.500977 -6
c-12.667 -38 -10.667 -57 6 -57c8.66699 0 19.667 5 33 15c9.33301 7.33301 22.166 19 38.499 35s28.5 27 36.5 33c2 1.33301 4.5 4 7.5 8s4.83301 6.33301 5.5 7c-78.667 37.333 -120.667 91.333 -126 162c-3.33301 42 9.33398 90.333 38.001 145
c29.333 56.667 65.333 95.667 108 117c30 13.333 58 16 84 8c14.667 -4.66699 27.5 -12.167 38.5 -22.5s19.833 -22.5 26.5 -36.5s11.5 -29.5 14.5 -46.5s4.5 -35.167 4.5 -54.5c0 -13.333 -2.33301 -34 -7 -62c-16 -79.333 -49 -156.333 -99 -231
c28.667 -7.33301 58.667 -11.666 90 -12.999h20c2.66699 0 4 -2.16699 4 -6.5s-1.66699 -6.5 -5 -6.5c-1.33301 1.33301 -3 2 -5 2c-1.33301 0 -3.66602 0.166992 -6.99902 0.5s-6 0.833008 -8 1.5c-33.333 1.33301 -65.333 6 -96 14c-23.333 -30 -42.333 -51 -57 -63
c-8.66699 -7.33301 -17.334 -11.666 -26.001 -12.999c-6.66699 0 -12 2.16699 -16 6.5s-6 10.166 -6 17.499v8c0 10 1.66699 21 5 33c-4.66699 -4 -11.5 -10.333 -20.5 -19s-17.333 -16.167 -25 -22.5s-15.167 -11.833 -22.5 -16.5c-12 -6.66699 -22 -10 -30 -10z" />
    <glyph glyph-name="it" unicode="it" horiz-adv-x="306" 
d="M21 264c-7.33301 -6 -11 -13.666 -11 -22.999c0 -2.66699 -1.66699 -4 -5 -4c-2.66699 0.666992 -4 2.33398 -4 5.00098c0 5.33301 2.16699 12.666 6.5 21.999s8.83301 11.666 13.5 6.99902c2.66699 -2 2.66699 -4.33301 0 -7zM277 434.001
c24.667 58.667 39.999 108.667 45.999 150v4v9v4.5v4.5l-1 4v1v1l-0.5 1l-0.5 1l-0.5 -0.5l-0.5 -0.5c-5.33301 -8 -11.333 -24.667 -18 -50c-11.333 -39.333 -21.666 -82.333 -30.999 -129h6zM264.999 407.001c0.666992 2 2.00098 5.16699 4.00098 9.5s3.33301 7.5 4 9.5
h-4l-0.5 -1l-0.5 -1c0 -2 -0.333008 -4.83301 -1 -8.5s-1.33398 -6.5 -2.00098 -8.5zM329 596.001l-0.00390625 -13l-2 -13c-5.33301 -34 -19.666 -79.333 -42.999 -136c38.667 1.33301 70 1.66602 94 0.999023h6c9.33301 0 16.333 -0.166992 21 -0.5
s10.334 -1.16602 17.001 -2.49902s11.667 -3.66602 15 -6.99902s5 -7.33301 5 -12v-2c-0.666992 -2 -1.83398 -3.16699 -3.50098 -3.5s-3.16699 0.166992 -4.5 1.5s-1.66602 2.66602 -0.999023 3.99902v2c0 1.33301 -2.66699 3 -8 5c-10 3.33301 -26 5.33301 -48 6
c-22.667 1.33301 -55 1.33301 -97 0l-10.5 -24.5l-11.5 -26.5c-28 -132 -46.667 -276 -56 -432c-2 -39.333 -3 -64.333 -3 -75c0 -36.667 0.333008 -58.667 1 -66c0 -4 -2.33301 -6 -7 -6c-1.33301 -0.666992 -2.66602 -0.333984 -3.99902 0.999023s-2 2.66602 -2 3.99902
c0.666992 4.66699 1 10.667 1 18c0 132 19.333 309 58 531c-16 -34.667 -36.333 -74 -61 -118c-9.33301 -17.333 -17 -30.833 -23 -40.5s-14.167 -21.5 -24.5 -35.5s-21.166 -25.5 -32.499 -34.5s-23.666 -15.833 -36.999 -20.5c-13.333 -5.33301 -25.5 -5.33301 -36.5 0
s-19.167 13.833 -24.5 25.5s-8 24.5 -8 38.5c0 8.66699 0.333008 14.667 1 18c0 4.66699 2.33301 6.66699 7 6c4.66699 0 6.66699 -2.33301 6 -7c0 -0.666992 -0.333008 -2 -1 -4v-5v-7c-2 -14 0.5 -26.833 7.5 -38.5s16.5 -18.167 28.5 -19.5s24.333 2 37 10
c29.333 17.333 61 56.333 95 117c35.333 66.667 59.666 114.334 72.999 143.001c1.33301 10 4.33301 25 9 45v1c-26 0 -65 -1.66699 -117 -5s-89.667 -5 -113 -5l-19 -1c-3.33301 0 -5 2.16699 -5 6.5s1.66699 6.5 5 6.5c4.66699 -1.33301 11 -2 19 -2
c33.333 0 99.333 2.33301 198 7l33 2c18 82 32.333 137 43 165c2 4.66699 5 10.334 9 17.001s7.33301 7.66699 10 3c0.666992 -0.666992 1.66699 -4.66699 3 -12c0 -1.33301 0.166992 -3 0.5 -5s0.5 -3.66699 0.5 -5z" />
    <glyph glyph-name="if" unicode="if" horiz-adv-x="308" 
d="M16 229c-1.33301 -2 -2.83105 -2.49902 -4.49805 -1.49902s-2.83398 2.5 -3.50098 4.5l1 1c0 0.666992 0.666992 2.66699 2 6s2.66602 6.16602 3.99902 8.49902l5 8.5c2 3.33301 3.83301 4.83301 5.5 4.5s3.5 -0.833008 5.5 -1.5c1.33301 -2.66699 1 -5 -1 -7
c-5.33301 -2.66699 -10 -10 -14 -22v-1zM164.002 12.001c-7.33301 32.667 -18.001 55 -32.001 67c-18 -116 -26.333 -208.333 -25 -277c0.666992 -66 8.66699 -111.667 24 -137c2.66699 -2.66699 4.33398 -4 5.00098 -4c2 0 6 5.66699 12 17c10.667 28 18.667 70.333 24 127
c6 85.333 3.33301 154.333 -8 207zM163.001 232.001c24.667 50 37.666 92.667 38.999 128v12v2c-5.33301 -10.667 -11.666 -30 -18.999 -58c-8 -29.333 -14.667 -57.333 -20 -84zM212 385.501c0 -0.333008 0.337891 -1.83105 1.00488 -4.49805s1 -5 1 -7v-13
c-0.666992 -27.333 -9.66699 -61.666 -27 -102.999c-10.667 -22.667 -21.334 -42 -32.001 -58c-7.33301 -36.667 -14 -72.667 -20 -108h20c1.33301 0 3.66602 0.166992 6.99902 0.5s5.66602 0.5 6.99902 0.5c18.667 2.66699 32.667 5.66699 42 9l13 6
c2.66699 2 8.5 5.5 17.5 10.5s15.5 9.16699 19.5 12.5l11 10c10.667 8.66699 23 23 37 43c0.666992 2 1.83398 3 3.50098 3s3 -0.666992 4 -2s1.16699 -3 0.5 -5c-14.667 -20 -32 -38.333 -52 -55c-7.33301 -5.33301 -11.333 -8.33301 -12 -9l-13 -7
c-19.333 -11.333 -38 -18 -56 -20l-15 -2c-2 0 -4.66699 -0.166992 -8 -0.5s-5.66602 -0.5 -6.99902 -0.5h-8l-7 1c-0.666992 0 -1.66699 0.166992 -3 0.5l-2 0.5l1 -2c29.333 -26.667 45.666 -85 48.999 -175c3.33301 -98 -5.66699 -176.333 -27 -235
c-9.33301 -22.667 -19 -30.334 -29 -23.001c-2.66699 1.33301 -5 3.16602 -7 5.49902s-3.83301 5.33301 -5.5 9s-2.83398 6.66699 -3.50098 9s-1.66699 6.16602 -3 11.499s-2 8.33301 -2 9c-12.667 48.667 -15.667 118.667 -9 210c3.33301 43.333 10.666 103.333 21.999 180
c-1.33301 0.666992 -4.66602 1.33398 -9.99902 2.00098h-1c-1.33301 1.33301 -2 2.83301 -2 4.5s1 2.5 3 2.5c2 -0.666992 3.5 -1 4.5 -1s2.16699 -0.166992 3.5 -0.5s2.33301 -0.5 3 -0.5c2.66699 17.333 7.33398 43.333 14.001 78c-10 -14.667 -23.667 -29 -41 -43
c-30 -23.333 -55.667 -30.666 -77 -21.999c-12 4.66699 -19.167 15.167 -21.5 31.5s-0.833008 31.166 4.5 44.499c1.33301 3.33301 3.66602 4.5 6.99902 3.5s4.66602 -3.16699 3.99902 -6.5c-3.33301 -10.667 -5.33301 -21.334 -6 -32.001s2.33301 -19.5 9 -26.5
s16.667 -9.5 30 -7.5c32 6 64 33 96 81c14 78.667 30.667 140.667 50 186c5.33301 10 10.666 14 15.999 12c3.33301 -1.33301 5 -3.33301 5 -6c0.666992 -0.666992 1 -1.16699 1 -1.5z" />
    <glyph glyph-name="ir" unicode="ir" horiz-adv-x="229" 
d="M27 242c4.66699 -2.66699 2.33203 -7.33301 -7.00098 -14c-8 -6 -13.333 -7.33301 -16 -4c-1.33301 2.66699 -1 5.16699 1 7.5s4.83301 4.5 8.5 6.5s5.83398 3.33301 6.50098 4c2.66699 2.66699 5 2.66699 7 0zM132.998 54.001
c0 -8.66699 1.99805 -13.001 5.99805 -13.001c4.66699 -2.66699 10.834 0.833008 18.501 10.5s14.5 19.5 20.5 29.5c8.66699 13.333 25.667 47 51 101c0.666992 2 2 3.16699 4 3.5s3.5 -0.333984 4.5 -2.00098s1.16699 -3.16699 0.5 -4.5l-13 -29
c-27.333 -55.333 -49 -91.333 -65 -108c-8 -8 -15.333 -11.667 -22 -11c-13.333 0 -17.666 18.667 -12.999 56c8 54.667 10.667 93 8 115c-0.666992 6.66699 -3.16699 15 -7.5 25s-7.16602 18 -8.49902 24v2c-1.33301 -1.33301 -4.33301 -6.33301 -9 -15
c-21.333 -44.667 -41.333 -79 -60 -103c-10 -14 -19.667 -22.333 -29 -25c-0.666992 0 -1.33398 -0.166992 -2.00098 -0.5s-1.33398 -0.5 -2.00098 -0.5h-3c-10.667 0 -16 14 -16 42c0 4 0.333008 8 1 12s1.33398 7.5 2.00098 10.5s1 5.83301 1 8.5v2
c0.666992 2 2 3.33301 4 4s4 0.333984 6 -0.999023s2.66699 -3.33301 2 -6l-1 -2c0 -0.666992 -0.5 -3.5 -1.5 -8.5s-1.83301 -10.5 -2.5 -16.5s-1 -11.833 -1 -17.5s1 -10.167 3 -13.5s4.66699 -4.66602 8 -3.99902c9.33301 4.66699 17.666 12 24.999 22
c23.333 31.333 47.333 75 72 131l2 4c0 4 1.33301 9.66699 4 17c0 0.666992 1 2.33398 3 5.00098h1c0.666992 0.666992 1.33398 1 2.00098 1c5.33301 0 8 -2 8 -6v-3l-0.5 -1l-0.5 -1c-2 -4 -3.16699 -8 -3.5 -12s-0.5 -7.66699 -0.5 -11s0.666992 -7.5 2 -12.5
s2.33301 -8.33301 3 -10l4.5 -11c2.33301 -5.66699 3.5 -8.83398 3.5 -9.50098c3.33301 -9.33301 5.33301 -21.333 6 -36c0 -20 -4 -53.667 -12 -101c-2 -12 -3 -22.333 -3 -31z" />
    <glyph glyph-name="lk" unicode="lk" horiz-adv-x="446" 
d="M192 141c4 0 11.333 4.33398 22 13.001c0 2 0.333008 3.66699 1 5c-12 0 -22.333 -3 -31 -9c-4.66699 -2.66699 -7 -5 -7 -7c0 -1.33301 1.66699 -2.33301 5 -3c2.66699 -0.666992 6 -0.333984 10 0.999023zM26 271.001c-5.33301 -29.333 -9 -53.001 -11 -71.001
c2 4 4.33301 7.66699 7 11c37.333 50.667 72.333 115.667 105 195c19.333 46.667 32.666 87 39.999 121c3.33301 17.333 5 32.333 5 45c0 16 -2.66699 29.333 -8 40c-7.33301 7.33301 -17.666 0.333008 -30.999 -21c-14 -23.333 -28.667 -55.666 -44 -96.999
c-26.667 -70.667 -47.667 -145 -63 -223zM285 489c-20.667 -94 -35 -167.668 -43 -221.001c42 57.333 82.333 120 121 188c30.667 54.667 52.667 101.667 66 141c0 0.666992 2.33301 10.334 7 29.001c10 51.333 5.33301 82.666 -14 93.999l-2 1
c-1.33301 0.666992 -2.33301 1 -3 1h-3h-4c-12 -1.33301 -26.333 -11.666 -43 -30.999c-32 -42 -59.333 -109.333 -82 -202zM215 145.999c-12 -8.66699 -22.3311 -12.665 -30.998 -11.998c-4.66699 0 -8 2.33301 -10 7c0 0.666992 -0.166992 1.16699 -0.5 1.5
s-0.5 0.833008 -0.5 1.5v2c1.33301 4.66699 4.5 8.83398 9.5 12.501s10.667 6.33398 17 8.00098s12.166 2.16699 17.499 1.5c2.66699 23.333 5.66699 44.666 9 63.999c-46.667 -62.667 -87 -109.667 -121 -141c-24.667 -20 -42.667 -32.333 -54 -37c-6 -2 -11.667 -3 -17 -3
c-9.33301 0 -16.833 3.66699 -22.5 11s-9.16699 16.166 -10.5 26.499s-2.33301 21.333 -3 33s-0.333984 22.5 0.999023 32.5c1.33301 31.333 6.66602 72 15.999 122c14.667 75.333 35.667 150.333 63 225c34.667 92.667 63 135.667 85 129
c2.66699 -0.666992 5 -2.33398 7 -5.00098c9.33301 -10 14 -27 14 -51c-0.666992 -15.333 -2.33398 -30.5 -5.00098 -45.5s-6.66699 -30.833 -12 -47.5s-9.66602 -29.334 -12.999 -38.001l-16 -40c-33.333 -78.667 -69.333 -144.334 -108 -197.001
c-6 -8.66699 -10.333 -14.667 -13 -18c-3.33301 -3.33301 -5.66602 -15.333 -6.99902 -36c-1.33301 -14 -1.33301 -30.167 0 -48.5s5.33301 -31.5 12 -39.5c8 -8 25 -3.66699 51 13c18.667 12.667 41.667 34 69 64c23.333 26 50.333 59.333 81 100
c0.666992 0.666992 1.33398 1.5 2.00098 2.5s1.33398 1.83301 2.00098 2.5c10 68 25.667 150 47 246c22.667 92.667 51 161.334 85 206.001c18 22 34.667 33.667 50 35h4c0.666992 0 1.5 -0.166992 2.5 -0.5l1.5 -0.5c9.33301 -1.33301 16.666 -5.83301 21.999 -13.5
s8.5 -17.167 9.5 -28.5s1.16699 -22.333 0.5 -33s-2.33398 -21.667 -5.00098 -33l-4 -15c-2.66699 -12 -7.66699 -26.667 -15 -44c-14 -33.333 -32.667 -71 -56 -113c-38 -68 -81 -135 -129 -201c-3.33301 -18.667 -7 -47 -11 -85c7.33301 6 15.5 13.333 24.5 22l23 22
c6.33301 6 14.333 14 24 24l19.5 20c4 7.33301 8 9.66602 12 6.99902c0.666992 -2 1.16699 -3.66699 1.5 -5s-0.5 -3.5 -2.5 -6.5s-4 -5.66699 -6 -8l-8.5 -9.5c-3.66699 -4 -7 -7.33301 -10 -10l-10.5 -9.5c-4 -3.66699 -7.33301 -6.5 -10 -8.5
s-5.33398 -4.16699 -8.00098 -6.5s-4.33398 -3.83301 -5.00098 -4.5l-38 -30c8.66699 -4.66699 19.167 -11.834 31.5 -21.501s24.5 -17.667 36.5 -24s26 -9.5 42 -9.5c26.667 0 57.667 22.333 93 67c3.33301 4 5.33301 6.33301 6 7c0 0.666992 0.666992 1.33398 2 2.00098
c2.66699 4 5.33398 5 8.00098 3l1.5 -4.5c0.333008 -1 -0.333984 -2.66699 -2.00098 -5s-3.16699 -4.16602 -4.5 -5.49902s-3 -3.16602 -5 -5.49902s-3.33301 -3.83301 -4 -4.5l-7.5 -7.5l-9 -9c-1.66699 -1.66699 -4.66699 -4.5 -9 -8.5s-7.83301 -7 -10.5 -9l-10.5 -8
c-4.33301 -3.33301 -8.33301 -5.83301 -12 -7.5s-7.66699 -3.33398 -12 -5.00098s-8.66602 -3 -12.999 -4s-8.83301 -1.5 -13.5 -1.5c-15.333 0 -29.333 3.5 -42 10.5s-25.167 15.5 -37.5 25.5s-23.166 16.667 -32.499 20h-1c-7.33301 -68.667 -11 -129.667 -11 -183l1 -7
c0 -5.33301 -3 -8 -9 -8s-9 2.66699 -9 8c0 46 4.33301 105.333 13 178z" />
    <glyph glyph-name="ll" unicode="ll" horiz-adv-x="438" 
d="M89 573c-35.333 -115.333 -59.333 -240.33 -72 -374.997c30.667 36.667 53 66 67 88c44.667 70 79.667 141 105 213c6.66699 20.667 12 38.667 16 54s8 34.666 12 57.999s3.83301 44.666 -0.5 63.999s-12.5 35 -24.5 47c-4 3.33301 -8.33301 5.33301 -13 6
s-9.16699 -0.5 -13.5 -3.5s-8.5 -6.66699 -12.5 -11s-8.16699 -10 -12.5 -17s-8.33301 -14 -12 -21s-7.16699 -14.833 -10.5 -23.5s-6.5 -16.5 -9.5 -23.5s-5.83301 -14.5 -8.5 -22.5l-6.5 -19c-1.66699 -4.66699 -3.16699 -9.33398 -4.5 -14.001zM392 536.003
c-26.667 -61.333 -51.668 -145.001 -75.001 -251.001c1.33301 2.66699 2.83301 5.5 4.5 8.5l5 9c1.66699 3 2.83398 5.83301 3.50098 8.5c38 70.667 64 131.667 78 183c7.33301 30.667 9.33301 53.667 6 69c0 10.667 -5.66699 5.33398 -17 -15.999
c-2 -3.33301 -3.66699 -7 -5 -11zM438.999 184.002c0.666992 2 1.83301 2.99609 3.5 2.99609s3.16699 -0.666992 4.5 -2s1.33301 -2.66602 0 -3.99902c-3.33301 -7.33301 -8.33301 -17.666 -15 -30.999c0 -0.666992 -2.5 -6 -7.5 -16l-11 -21.5
c-2.33301 -4.33301 -6.33301 -11.333 -12 -21s-10.5 -17.5 -14.5 -23.5s-8.83301 -12.833 -14.5 -20.5s-11.334 -14.167 -17.001 -19.5s-11.167 -9.33301 -16.5 -12c-12 -8 -22.667 -7.33301 -32 2c-18 22.667 -23.667 70.334 -17 143.001
c2.66699 20.667 6.33398 46.334 11.001 77.001c-56 -94 -108 -167 -156 -219c-20 -20.667 -38 -36.667 -54 -48l-4.5 -2.5c-3 -1.66699 -4.83301 -2.66699 -5.5 -3s-2.33398 -1.33301 -5.00098 -3s-4.66699 -2.66699 -6 -3s-3.33301 -1 -6 -2s-5 -1.5 -7 -1.5
s-4.16699 -0.166992 -6.5 -0.5s-4.66602 -0.333008 -6.99902 0s-4.83301 1.16602 -7.5 2.49902c-6.66699 2 -12.334 5.83301 -17.001 11.5s-8.16699 13 -10.5 22s-4 16.667 -5 23s-2.16699 15.166 -3.5 26.499c-4 34 -4 80.667 0 140c6 84 20 174 42 270
c25.333 108.667 52.666 189 81.999 241c14 25.333 28.333 41 43 47c20 6.66699 37 -5 51 -35c12.667 -26 15.667 -63.333 9 -112c-9.33301 -55.333 -30 -116.333 -62 -183c-41.333 -88.667 -84.666 -157.667 -129.999 -207l-20 -20v-3
c-4.66699 -53.333 -5.33398 -99.333 -2.00098 -138c0.666992 -10.667 1.33398 -19.334 2.00098 -26.001s2.33398 -14.5 5.00098 -23.5s6.83398 -15.667 12.501 -20s12.834 -5.83301 21.501 -4.5c9.33301 2 19.333 6.33301 30 13c27.333 18 60 50.667 98 98
c40 50 81 111.333 123 184c22 114.667 48.667 207 80 277l3 7c2 4.66699 3.66699 8 5 10s3 4.83301 5 8.5s4.16699 6.33398 6.5 8.00098s5 2.83398 8 3.50098s5.5 -0.166016 7.5 -2.49902s3.33301 -5 4 -8s1 -6.16699 1 -9.5
c1.33301 -14.667 -1.33398 -36.334 -8.00098 -65.001c-16 -62 -51 -139.333 -105 -232c-6.66699 -37.333 -11.334 -70.333 -14.001 -99c-6 -61.333 -3 -104.333 9 -129c2.66699 -6 6.16699 -9.66699 10.5 -11s8.83301 -0.666016 13.5 2.00098s9.33398 6 14.001 10
s9.33398 9 14.001 15l11 14.5c2.66699 3.66699 5 7.16699 7 10.5c7.33301 10.667 14.166 21.5 20.499 32.5s11.333 20.167 15 27.5l13.5 27.5c5.33301 11 9.66602 19.167 12.999 24.5z" />
    <glyph glyph-name="nt" unicode="nt" horiz-adv-x="303" 
d="M278 418c-2 -8.66699 -3.33496 -16.667 -4.00195 -24l4 12c0.666992 0.666992 1.33398 2.5 2.00098 5.5s1.33398 5.16699 2.00098 6.5h-4zM330.998 609c-18 -44.667 -35 -105.667 -51 -183h4c16.667 49.333 29.667 94.333 39 135c5.33301 20.667 8 36.667 8 48z
M-2.00195 80c-3.33301 0 -5.00195 0.994141 -5.00195 2.99414v1c-0.666992 0.666992 -1 1.66699 -1 3v2c0 8.66699 0.666992 15 2 19v10.5c0 5.66699 0.166992 10.5 0.5 14.5s0.5 9.16699 0.5 15.5s0.333008 11.5 1 15.5s1.5 8 2.5 12s2.16699 7 3.5 9s2.66602 3 3.99902 3
c4 -1.33301 5.66699 -3.66602 5 -6.99902c-0.666992 -2 -1.16699 -3.83301 -1.5 -5.5s-0.666016 -3.83398 -0.999023 -6.50098s-0.833008 -5 -1.5 -7c-4 -28 -6 -51.667 -6 -71c2.66699 2.66699 9.83398 12 21.501 28s22.167 26.667 31.5 32c4 2.66699 8.66699 3.5 14 2.5
s9 -3.5 11 -7.5c3.33301 -4.66699 5.83301 -10.667 7.5 -18s3 -15.666 4 -24.999s2.16699 -16.666 3.5 -21.999c4 -14 10.333 -21 19 -21h5c2.66699 0.666992 6 3.33398 10 8.00098c6 6.66699 17.667 25.334 35 56.001c30.667 60 61.667 133.333 93 220
c1.33301 6.66699 3.5 18.167 6.5 34.5s5.5 28.833 7.5 37.5c-71.333 -6.66699 -129.666 -9.33398 -174.999 -8.00098c-11.333 0 -31 0.666992 -59 2c-3.33301 0 -5 1.66699 -5 5c0 2.66699 1.66699 4 5 4c4.66699 0 10.334 -0.333008 17.001 -1c2 0 8 -0.666992 18 -2h12h13
c46.667 0 105 2.66699 175 8c17.333 81.333 33.333 141 48 179c4.66699 12 9.66699 18.333 15 19c4 0 6 -1.33301 6 -4c0 -1.33301 0.166992 -2.33301 0.5 -3l0.5 -1v-6c0 -13.333 -2.66699 -30.333 -8 -51c-8 -35.333 -20.333 -79 -37 -131
c4.66699 0 15.167 0.666992 31.5 2s28.666 2.16602 36.999 2.49902s17.833 -0.5 28.5 -2.5s18.667 -5.33301 24 -10c2 -1.33301 2 -2.66602 0 -3.99902l-1 -1l-6 -1c-6 6 -24 9 -54 9c-16 0 -36.667 -1 -62 -3c-4 -10.667 -9.5 -26.334 -16.5 -47.001s-12.5 -36 -16.5 -46
c-23.333 -142.667 -37.666 -284.667 -42.999 -426l-3 -75c0 -2.66699 -1.33301 -4 -4 -4s-4 1.66699 -4 5c0 18.667 1.33301 43 4 73c8 150.667 20.333 279.334 37 386.001c-40 -97.333 -69.333 -162.666 -88 -195.999c-1.33301 -2 -3.33301 -5.16699 -6 -9.5
s-4.83398 -7.66602 -6.50098 -9.99902s-3.83398 -5.16602 -6.50098 -8.49902s-5.66699 -6 -9 -8s-6.66602 -3.66699 -9.99902 -5h-9c-10 0 -17.667 3.33301 -23 10s-8.66602 14 -9.99902 22s-2.83301 17.833 -4.5 29.5s-3.5 20.167 -5.5 25.5
c-2.66699 8 -6.66699 10.333 -12 7c-5.33301 -2.66699 -11.333 -7.66699 -18 -15c-6 -5.33301 -13 -13 -21 -23l-18 -22h-1c-0.666992 -0.666992 -1.33398 -1 -2.00098 -1z" />
    <glyph glyph-name="rr" unicode="rr" horiz-adv-x="297" 
d="M18 73c0 -10.667 3.33398 -16.0039 10.001 -16.0039c5.33301 0 12.333 5 21 15c18.667 20.667 38.334 52 59.001 94c16 34.667 25.667 59.667 29 75c-2 8.66699 -3 15.334 -3 20.001c-1.33301 22 2 38 10 48c2 1.33301 3.33301 2 4 2l1.5 0.5l1.5 0.5
c3.33301 0 6 -1.66699 8 -5v-1v-2c1.33301 -3.33301 1.33301 -8 0 -14l-1 -13c-0.666992 -2 -3.33398 -12.333 -8.00098 -31c1.33301 -4 5.33301 -15.333 12 -34s11.334 -33 14.001 -43c2 -8 3.83301 -16 5.5 -24s2.66699 -16.333 3 -25s0.666016 -16.167 0.999023 -22.5
s0.166016 -14.666 -0.500977 -24.999s-1.16699 -17.666 -1.5 -21.999s-1.16602 -12.666 -2.49902 -24.999s-2 -20.166 -2 -23.499c-1.33301 -14.667 -0.333008 -22 3 -22h2c4 0 10.333 6.66699 19 20c11.333 16 22.333 34.167 33 54.5s22.5 44.666 35.5 72.999
s21.833 46.833 26.5 55.5c0.666992 2 2 3 4 3s3.5 -0.666992 4.5 -2s1.16699 -3 0.5 -5l-21 -41l-21.5 -43.5c-10.333 -21 -19.833 -39.5 -28.5 -55.5s-17.334 -30.333 -26.001 -43c0 -0.666992 -0.333008 -1.33398 -1 -2.00098
c-15.333 -23.333 -27.666 -28.333 -36.999 -15c-2 4.66699 -3 12.667 -3 24c0 7.33301 0.833008 18.5 2.5 33.5s2.5 26.5 2.5 34.5c1.33301 47.333 -7.66699 94.333 -27 141c-0.666992 0.666992 -1.33398 1.66699 -2.00098 3l-3 7
c-7.33301 -22.667 -24 -56.334 -50 -101.001c-9.33301 -18 -17 -31 -23 -39c-13.333 -16 -23.333 -26.333 -30 -31c-10.667 -6.66699 -18.667 -6.66699 -24 0c-5.33301 5.33301 -8 12.333 -8 21c-0.666992 8 0.5 18.5 3.5 31.5s5.16699 23.5 6.5 31.5s0.333008 18.333 -3 31
c-0.666992 1.33301 -3.16699 6 -7.5 14s-6.5 14.333 -6.5 19c-0 2 0.333008 3.33301 1 4c0 3.33301 1.5 5.33301 4.5 6s5.83301 0.333984 8.5 -0.999023c4.66699 -4 7 -9.66699 7 -17c0 -1.33301 -0.666992 -4.66602 -2 -9.99902c6.66699 -15.333 10 -29 10 -41
c0 -7.33301 -1.83301 -18.5 -5.5 -33.5s-5.5 -26.167 -5.5 -33.5z" />
    <glyph glyph-name="ob" unicode="ob" horiz-adv-x="411" 
d="M21 219l-1.00098 -1c4.66699 -7.33301 15.334 -11 32.001 -11c-4.66699 14.667 -12.667 19.667 -24 15c-0.666992 0 -1.66699 -0.333008 -3 -1s-2.33301 -1 -3 -1zM245.999 504c-30.667 -78 -52.668 -164 -66.001 -258c50.667 36 96.667 90 138 162
c35.333 61.333 55.333 116.666 60 165.999c2.66699 16.667 2 32.5 -2 47.5s-12 21.833 -24 20.5c-9.33301 0 -21.666 -6.66699 -36.999 -20c-25.333 -25.333 -48.333 -64.666 -69 -117.999zM261.998 192c2.66699 -5.33301 7.66699 -10 15 -14c-4 7.33301 -9 12.333 -15 15
v-1zM417.998 179c-54 -19.333 -96.999 -24.001 -128.999 -14.001c2 -7.33301 2.66699 -16 2 -26c-1.33301 -16.667 -6.16602 -33.667 -14.499 -51s-18.166 -31.666 -29.499 -42.999c-4 -4 -8.83301 -7.83301 -14.5 -11.5s-12.167 -7 -19.5 -10s-14.666 -3.66699 -21.999 -2
s-13.666 5.83398 -18.999 12.501c-14.667 18 -19.667 58.667 -15 122c0.666992 20 2.66699 43 6 69c-30 -17.333 -63.333 -27.666 -100 -30.999c0 -27.333 -10 -50 -30 -68c-6.66699 -5.33301 -14 -7.5 -22 -6.5s-13.667 5.5 -17 13.5c-6.66699 16.667 -4 34 8 52
c1.33301 2.66699 3.16602 3.16699 5.49902 1.5s2.83301 -3.83398 1.5 -6.50098c-2 -3.33301 -3.83301 -8.33301 -5.5 -15s-2 -13.5 -1 -20.5s4.5 -11.167 10.5 -12.5c7.33301 -1.33301 15.666 5.66699 24.999 21c8.66699 13.333 13 27.666 13 42.999v1
c-22.667 1.33301 -37 6.66602 -43 15.999c-4.66699 6.66699 -2.5 12.667 6.5 18s17.5 6.66602 25.5 3.99902c12.667 -4 20.334 -13.667 23.001 -29c33.333 0 67.666 10.667 102.999 32l0.5 2.5c0.333008 1.66699 0.5 2.83398 0.5 3.50098
c14.667 97.333 37.334 185.333 68.001 264c13.333 32.667 27 60.334 41 83.001s31 40.334 51 53.001c8 5.33301 16.333 8 25 8s16.334 -3.33301 23.001 -10c12 -12 16.667 -35.333 14 -70c-4.66699 -48 -25.334 -104.667 -62.001 -170
c-42.667 -75.333 -92.334 -131.333 -149.001 -168c-8 -70 -10 -122.333 -6 -157c1.33301 -14.667 4.83301 -26.167 10.5 -34.5s15.167 -11.166 28.5 -8.49902c16 5.33301 32.667 20.666 50 45.999c12.667 20.667 20 41 22 61
c1.33301 11.333 0.666016 20.666 -2.00098 27.999c-14 5.33301 -22.667 12.666 -26 21.999v6c0 2.66699 2.33301 4 7 4c9.33301 -2 17.666 -11.333 24.999 -28c0.666992 -0.666992 1.66699 -1 3 -1c30 -8.66699 64.333 -6 103 8c3.33301 0.666992 6.5 1.66699 9.5 3
s5.33301 2.33301 7 3s3.16699 1.16699 4.5 1.5s2.5 0.333008 3.5 0s1.83301 -1.16602 2.5 -2.49902c1.33301 -2.66699 0.666016 -4.66699 -2.00098 -6z" />
    <glyph glyph-name="of" unicode="of" horiz-adv-x="265" 
d="M163 -90c3.33301 87.333 -6.99902 145.329 -30.999 173.996c-4 1.33301 -6.33301 2 -7 2v-2c-16 -123.333 -22.333 -233.666 -19 -330.999c1.33301 -33.333 4.66602 -57.666 9.99902 -72.999l0.5 -1l0.5 -1h1c2.66699 2.66699 5.66699 7.66699 9 15
c8 20.667 16.333 56.334 25 107.001c6 38.667 9.66699 75.334 11 110.001zM32.001 188.996c0 -5.33301 7.33203 -7 21.999 -5c-0.666992 0 -1 0.333008 -1 1c-1.33301 4.66699 -3.66602 8.16699 -6.99902 10.5s-7 1.83301 -11 -1.5zM150 233.996
c34.667 36.667 52.002 84.333 52.002 143c0 6 -0.333008 10 -1 12h-1c-2.66699 -4 -5.33398 -8.33301 -8.00098 -13s-4.83398 -9.16699 -6.50098 -13.5s-3.5 -9.5 -5.5 -15.5s-3.5 -11 -4.5 -15s-2.5 -9.5 -4.5 -16.5s-3.33301 -11.833 -4 -14.5
c-2 -6 -7.66699 -28.333 -17 -67zM201.002 400.995c6.66699 0 9.99414 -7.66797 9.99414 -23.001c0 -65.333 -21.333 -117.666 -64 -156.999c-8 -41.333 -14.667 -82.333 -20 -123l2.5 -2.5c1 -1 2.16699 -2 3.5 -3s2.33301 -1.83301 3 -2.5
c32.667 -7.33301 59.667 -1.5 81 17.5s37.333 44.5 48 76.5c2 4 4.16699 5 6.5 3s2.5 -5.66699 0.5 -11l-5 -14c-14.667 -34 -35 -59 -61 -75c-22 -12.667 -43.333 -16.334 -64 -11.001c22 -32.667 31.667 -89.667 29 -171c-1.33301 -50.667 -8 -106 -20 -166
c-6 -28.667 -13.667 -51 -23 -67c-3.33301 -5.33301 -7.33301 -8.16602 -12 -8.49902s-8.66699 2.5 -12 8.5l-2.5 8.5c-1.66699 5.66699 -2.83398 10.167 -3.50098 13.5c-5.33301 34 -6.66602 89.667 -3.99902 167c2 72 8 146 18 222c0 0.666992 0.166992 1.66699 0.5 3
s0.5 2.33301 0.5 3c-8 4.66699 -12 7.33398 -12 8.00098c-4.66699 0.666992 -5.66699 2.66699 -3 6c0.666992 0.666992 1.33398 1 2.00098 1c4 0 8.33301 -0.666992 13 -2l9 52l9 52c-22 -16 -45 -26.333 -69 -31c4.66699 -26.667 -4.66602 -49.667 -27.999 -69
c-6.66699 -6 -14.5 -8.5 -23.5 -7.5s-15.5 5.5 -19.5 13.5c-9.33301 18.667 -6.33301 42.667 9 72c2.66699 5.33301 6.33398 5.66602 11.001 0.999023c2.66699 -2 3 -4.33301 1 -7c-10 -21.333 -14.667 -37.666 -14 -48.999c0.666992 -6.66699 2.5 -12 5.5 -16
s7.5 -5.33301 13.5 -4c12 4 22 12.667 30 26s10.333 26.666 7 39.999c-8 -0.666992 -15.667 0 -23 2s-9.66602 6 -6.99902 12c1.33301 6.66699 4.83301 11.167 10.5 13.5s11.167 1.16602 16.5 -3.50098c2 -1.33301 5.33301 -6.66602 10 -15.999h1
c26 5.33301 50 17.333 72 36c16.667 76.667 33.334 131 50.001 163c6.66699 12.667 12.334 19 17.001 19z" />
    <glyph glyph-name="or" unicode="or" horiz-adv-x="314" 
d="M197 307c-0.666992 -1.33301 -1.33008 -4.00293 -1.99707 -8.00293s-1.66699 -7.33301 -3 -10l-0.5 -0.5l-0.5 -0.5c2 -3.33301 6 -8 12 -14l1 -2c9.33301 -8.66699 14 -22.334 14 -41.001c0 -13.333 -1 -26.5 -3 -39.5s-5.16699 -28.167 -9.5 -45.5
s-7.16602 -29 -8.49902 -35c-4 -26.667 -3.66699 -44 1 -52l3 -3l2 -2h1.5h1.5c8 0 17.333 5.33301 28 16c29.333 28 56.333 66.667 81 116c1.33301 1.33301 2.66602 2 3.99902 2s2.5 -0.833008 3.5 -2.5s1.5 -3.16699 1.5 -4.5c-8.66699 -15.333 -24 -39.333 -46 -72
c-20.667 -28.667 -37.667 -47.334 -51 -56.001c-7.33301 -4.66699 -15 -7 -23 -7c-2.66699 0 -5.33398 1 -8.00098 3c0 0.666992 -0.666992 1.83398 -2 3.50098l-2 2.5c-6 10 -7 29.333 -3 58c1.33301 8 3.66602 20.167 6.99902 36.5s6 31.333 8 45s2.66699 26.167 2 37.5
c-0.666992 16.667 -4.66699 28 -12 34c-3.33301 2.66699 -6.66602 6 -9.99902 10c-11.333 -20.667 -27.833 -37.834 -49.5 -51.501s-45.834 -22.5 -72.501 -26.5c5.33301 -18 4.5 -35.5 -2.5 -52.5s-17.5 -28.167 -31.5 -33.5c-11.333 -4 -20.333 -1.16699 -27 8.5
s-9.83398 21.334 -9.50098 35.001s3.83301 23.834 10.5 30.501c1.33301 2 3.33301 2.16699 6 0.5s3 -3.5 1 -5.5c-2 -5.33301 -3.66699 -11.666 -5 -18.999s-1.33301 -15 0 -23s4.66602 -13.333 9.99902 -16c13.333 -3.33301 23.833 3.83398 31.5 21.501s9.5 34.5 5.5 50.5
l-0.5 1l-0.5 1h-2c-7.33301 -0.666992 -14.666 -0.166992 -21.999 1.5s-10 5.5 -8 11.5c2 5.33301 6.66699 8.5 14 9.5s13.333 -0.166992 18 -3.5c3.33301 -3.33301 6 -6.66602 8 -9.99902c26.667 1.33301 50.5 9.33301 71.5 24s37.167 33 48.5 55
c-3.33301 5.33301 -4.5 11.833 -3.5 19.5s4.83301 12.5 11.5 14.5c2 0.666992 4 0.166992 6 -1.5s3.33301 -3.5 4 -5.5s1 -3.66699 1 -5z" />
    <glyph glyph-name="ot" unicode="ot" horiz-adv-x="238" 
d="M215 438l3.99902 0.000976562c26.667 71.333 45.667 136.333 57 195c2.66699 16.667 4 29.667 4 39c0 8 -0.333008 14 -1 18c0 1.33301 -0.666992 2.66602 -2 3.99902c-2 -2 -3.83301 -5 -5.5 -9s-3 -7.33301 -4 -10s-2.16699 -6.66699 -3.5 -12s-2.33301 -9 -3 -11
c-13.333 -44.667 -28.666 -116 -45.999 -214zM19.999 210.001c0 -4 2.5 -7.66699 7.5 -11s9.83301 -5 14.5 -5c0 0.666992 -0.166992 1.5 -0.5 2.5l-0.5 1.5c-1.33301 8 -4.33301 13.333 -9 16c-1.33301 0.666992 -3 1 -5 1s-3.83301 -0.666992 -5.5 -2
s-2.16699 -2.33301 -1.5 -3zM274.999 702.001c8.66699 0 13.0029 -10.3359 13.0029 -31.0029c-1.33301 -24.667 -9.33301 -63.667 -24 -117c-12 -41.333 -24.333 -79.666 -37 -114.999c17.333 2 31.666 3 42.999 3c22 0 38.333 -2.66699 49 -8
c2.66699 -0.666992 4.5 -1.5 5.5 -2.5s0.833008 -2.5 -0.5 -4.5c-2 -3.33301 -4.33301 -4.33301 -7 -3c-13.333 6.66699 -29.333 10 -48 10c-14 0 -29.667 -1 -47 -3l-8.5 -23c-3.66699 -10 -6.5 -17.333 -8.5 -22c-32 -189.333 -46.333 -343.333 -43 -462
c0.666992 -22.667 3 -46.667 7 -72c1.33301 -4.66699 -0.666992 -7.33398 -6 -8.00098c-4 0 -6.33301 1.66699 -7 5c-4 24.667 -6.33301 49.334 -7 74.001c-1.33301 65.333 7 172.666 25 321.999c4.66699 34.667 9.66699 69.334 15 104.001
c-9.33301 -21.333 -16.5 -37.166 -21.5 -47.499s-12.5 -23.666 -22.5 -39.999s-20 -29.833 -30 -40.5c-16 -17.333 -36 -29 -60 -35v-10c-2 -22 -10.667 -38.333 -26 -49c-4 -4 -9.33301 -6 -16 -6s-12 2 -16 6c-7.33301 9.33301 -10 19.833 -8 31.5
s6.33301 20.834 13 27.501c2 2 4.33301 2.16699 7 0.5s3 -3.5 1 -5.5c-2 -4 -4 -8.5 -6 -13.5s-3.16699 -10.833 -3.5 -17.5s1.83398 -11.334 6.50098 -14.001c5.33301 -4 11 -3 17 3s10.333 12.333 13 19c3.33301 8 5 17 5 27c-20 4 -31 12 -33 24
c0 7.33301 2.66699 12.333 8 15h1c4 2.66699 7.33301 4 10 4c4.66699 0 8.66699 -1 12 -3s6 -5 8 -9s3.5 -7.33301 4.5 -10s2.16699 -6.66699 3.5 -12c17.333 0 36 10.667 56 32c12.667 14 25 32.333 37 55c22 40 38 75.667 48 107c1.33301 4 2.66602 10.5 3.99902 19.5
l3 20.5c-8 -1.33301 -23.5 -4.33301 -46.5 -9s-43 -8.16699 -60 -10.5s-34.5 -3.5 -52.5 -3.5c-4 0 -9.16699 0.333008 -15.5 1s-13 1.5 -20 2.5s-12.5 2.66699 -16.5 5s-5.33301 4.83301 -4 7.5c1.33301 4 3.66602 5.33301 6.99902 4h1c7.33301 -7.33301 23.333 -11 48 -11
c7.33301 -0.666992 15.333 -0.666992 24 0c14 0 28.5 1.16699 43.5 3.5s31.667 5.5 50 9.5s32.166 6.66699 41.499 8c14 84.667 30 157.667 48 219c6 22 11.667 36.667 17 44c1.33301 2 3.33301 3.33301 6 4z" />
    <glyph glyph-name="pl" unicode="pl" horiz-adv-x="574" 
d="M74 43c21.333 14 36.334 26 45.001 36c7.33301 8 13.666 18 18.999 30c-36 -35.333 -57.333 -57.333 -64 -66zM-29.999 -348c2.66699 18.667 5 37.998 7 57.998s3.66699 42 5 66s2.5 43.5 3.5 58.5s2 37.333 3 67s1.83301 49.834 2.5 60.501
c-17.333 -66 -30 -138.667 -38 -218c-4.66699 -53.333 -6 -97.666 -4 -132.999c0.666992 -14 1.66699 -24 3 -30c0 -0.666992 0.166992 -1.16699 0.5 -1.5l0.5 -0.5c5.33301 10 11 34.333 17 73zM481.001 575.998c0 5.33301 -1 8 -3 8h-2
c-3.33301 -0.666992 -7.33301 -4 -12 -10c-16 -18 -33 -50.667 -51 -98c-8.66699 -22 -16 -44.667 -22 -68c-2.66699 -8 -4.66699 -16 -6 -24c44.667 54.667 75 107 91 157c4 15.333 5.66699 27 5 35zM1.00098 184.998c0 2.66699 1.17188 4.33594 3.50488 5.00293
s4.5 0.166992 6.5 -1.5s2.66699 -3.83398 2 -6.50098l-1 -2c0 -3.33301 -0.666992 -8.66602 -2 -15.999s-2.33301 -13.333 -3 -18c-1.33301 -22 -3 -54.333 -5 -97c16 50.667 34 91.334 54 122.001c12.667 21.333 27 35.666 43 42.999c19.333 8.66699 34.833 5.5 46.5 -9.5
s17.167 -33.5 16.5 -55.5c85.333 83.333 153.666 155.666 204.999 216.999c18.667 76.667 40.667 137.667 66 183c14 24.667 27 39.334 39 44.001c8.66699 3.33301 14.334 -1.66699 17.001 -15c0.666992 -10 -1.66602 -23.333 -6.99902 -40
c-6 -20.667 -14.833 -41.667 -26.5 -63s-22.5 -38.833 -32.5 -52.5s-23.667 -30.834 -41 -51.501l-1 -1c-0.666992 -0.666992 -1 -1.33398 -1 -2.00098c-17.333 -68.667 -31 -145 -41 -229c-8.66699 -78 -11.667 -138.667 -9 -182v-4c0.666992 -4 1.16699 -7.16699 1.5 -9.5
s0.666016 -5.66602 0.999023 -9.99902s0.833008 -7.83301 1.5 -10.5l2.5 -10.5c1 -4.33301 2.16699 -7.66602 3.5 -9.99902l4.5 -8c1.66699 -3 3.5 -5.16699 5.5 -6.5s4.33301 -2.5 7 -3.5s5.66699 -1.33301 9 -1s6.66602 1.16602 9.99902 2.49902c10 4 22.667 14 38 30
c21.333 22 43 50.833 65 86.5s38.167 63.834 48.5 84.501l46.5 97c2 3.33301 4.33301 4.33301 7 3c3.33301 -2 2.66602 -4 -2.00098 -6c-55.333 -124 -109.333 -214.333 -162 -271c-20 -22 -38.333 -34 -55 -36c-8.66699 0 -16 2.5 -22 7.5s-10.667 12.5 -14 22.5
s-5.5 18.5 -6.5 25.5s-2.16699 16.167 -3.5 27.5c-2.66699 46.667 0.333008 108 9 184c9.33301 80.667 21.333 150.667 36 210c-46 -54.667 -113.667 -126.334 -203 -215.001c-6.66699 -43.333 -33.334 -78 -80.001 -104c-6 -4.66699 -12.333 -8 -19 -10h-1.5h-2.5
c-2 0 -3.83301 1 -5.5 3s-2.5 4 -2.5 6c1.33301 4 5 9 11 15c1.33301 2 2.83301 3.83301 4.5 5.5l5 5l4.5 4.5l28 28l21 21l21 21c4 13.333 4.33301 28.166 1 44.499s-10.666 25.166 -21.999 26.499c-15.333 2.66699 -33 -10.666 -53 -39.999
c-24.667 -35.333 -47.334 -87.333 -68.001 -156c-0.666992 -16.667 -1.5 -39.5 -2.5 -68.5s-2 -54.167 -3 -75.5s-2.33301 -44.833 -4 -70.5s-3.5 -50.334 -5.5 -74.001s-4.66699 -45.834 -8 -66.501c-4.66699 -38 -10.667 -63.667 -18 -77
c-1.33301 -3.33301 -3.83301 -5.33301 -7.5 -6s-6.83398 1 -9.50098 5c0 0.666992 -0.333008 1.66699 -1 3v2c-2.66699 7.33301 -4.33398 18.333 -5.00098 33c-4 72 4.33301 163.333 25 274c7.33301 40.667 16.666 81 27.999 121c0.666992 14 1.33398 33.667 2.00098 59
s1.5 46.833 2.5 64.5s2.83301 32.834 5.5 45.501l1 7z" />
    <glyph glyph-name="rl" unicode="rl" horiz-adv-x="342" 
d="M142 250c-4 -28.667 -6.33301 -49.998 -7 -63.998c65.333 79.333 110.666 169.333 135.999 270c12.667 46.667 18.334 84.667 17.001 114c-2 17.333 -6.33301 26.666 -13 27.999c-6.66699 0.666992 -15.667 -5.33301 -27 -18c-19.333 -20.667 -37 -55.334 -53 -104.001
c-23.333 -72 -41 -147.333 -53 -226zM121 156.002c-2 -2.66699 -6.00391 -6.99707 -12.0039 -12.9971s-10.5 -10.333 -13.5 -13l-12.5 -11.5c-5.33301 -5 -10.166 -8.83301 -14.499 -11.5s-9.5 -5.33398 -15.5 -8.00098s-12 -5 -18 -7h-1.5h-2.5h-4
c-2.66699 0 -4.66699 0.333008 -6 1h-1l-1 1h-1c-8 6 -12 14.333 -12 25c0 4 0.5 8.5 1.5 13.5l3 15c1 5 1.5 9.5 1.5 13.5l-0.5 1.5l-0.5 1.5v1.5v1.5l-2 4c-6 6 -9 13.667 -9 23s3.33301 17 10 23c1.33301 0.666992 3 1 5 1c3.33301 0 5 -1.33301 5 -4v-2v-3v-1v-2
c0 -4.66699 -2.66699 -11 -8 -19l-0.5 -0.5l-0.5 -0.5c6.66699 -10 10.667 -17.333 12 -22c0 -0.666992 0.166992 -1.5 0.5 -2.5s0.5 -1.83301 0.5 -2.5c0 -5.33301 -1 -12.5 -3 -21.5s-3 -15.833 -3 -20.5c0 -20 15.333 -19 46 3c17.333 12.667 36.666 31 57.999 55
c10.667 106.667 31.334 208.667 62.001 306c6.66699 20 12.334 35.833 17.001 47.5s11.834 25.167 21.501 40.5s20.167 27 31.5 35c15.333 10 27 10 35 0c10 -12 13 -36.333 9 -73c-1.33301 -12.667 -3.66602 -26.5 -6.99902 -41.5s-6.16602 -26.5 -8.49902 -34.5l-12 -40.5
c-5.66699 -19 -9.16699 -30.167 -10.5 -33.5c-30 -82 -72.667 -154.333 -128 -217c-1.33301 -25.333 -2 -44 -2 -56c0 -59.333 8.66699 -93.333 26 -102c16 -10 36.333 -5 61 15c16.667 13.333 33.5 30.5 50.5 51.5s30 38.5 39 52.5s21.167 34 36.5 60
c2 4 4.66699 3.66699 8 -1c-6 -10 -19.333 -30.667 -40 -62c-36 -50 -66 -85 -90 -105c-24.667 -18.667 -45.667 -25.334 -63 -20.001c-6.66699 0 -13.334 4.66699 -20.001 14c-12.667 17.333 -19 50.666 -19 99.999c0 3.33301 0.166992 8 0.5 14s0.5 11.5 0.5 16.5
s0.333008 9.83301 1 14.5z" />
    <glyph glyph-name="sh" unicode="sh" horiz-adv-x="661" 
d="M215 106c-13.333 19.333 -48 34.001 -104 44.001l-40 -43c-13.333 -14.667 -26 -30.334 -38 -47.001c-16.667 -24.667 -17 -40.667 -1 -48c12 -6 31 -6 57 0c42.667 10 78.667 27.667 108 53l2 2c14.667 14.667 20 27.667 16 39zM455 575.001
c-20.667 -25.333 -40.999 -69.001 -60.999 -131.001c4 5.33301 9.16699 11.333 15.5 18l17 17.5c5 5 10.167 10.5 15.5 16.5l16 18.5l15 18.5l4 5.5c2.66699 3.66699 4.16699 5.83398 4.5 6.50098s1.83301 3.16699 4.5 7.5s4 7 4 8s1 3.66699 3 8s2.5 7 1.5 8
s-1.16699 3.83301 -0.5 8.5c-0.666992 5.33301 -2.83398 8.33301 -6.50098 9s-7.66699 -0.333008 -12 -3s-8.33301 -5.5 -12 -8.5s-6.5 -5.5 -8.5 -7.5zM664.001 188c2.66699 -2.66699 2.65918 -5.00195 -0.0078125 -7.00195c-34 -31.333 -62.333 -51.333 -85 -60
c-9.33301 -3.33301 -18 -5 -26 -5c-12.667 0 -23.667 3.33301 -33 10s-18.5 15.667 -27.5 27s-15.833 19 -20.5 23c-16.667 13.333 -37 6.66602 -61 -20.001c-14.667 -15.333 -29.667 -36 -45 -62c-0.666992 -2 -2 -4.5 -4 -7.5s-3.5 -5.66699 -4.5 -8
s-1.5 -4.83301 -1.5 -7.5h-1c-2 -2.66699 -4.66699 -3.5 -8 -2.5s-5 2.83301 -5 5.5c0 132 10.667 245.333 32 340l-123 -122.5c-57.333 -56.333 -100.666 -100.166 -129.999 -131.499c14 -2.66699 24.833 -5 32.5 -7s17.334 -5 29.001 -9s20.834 -9.5 27.501 -16.5
s11 -15.5 13 -25.5c1.33301 -14 -6.33398 -28.333 -23.001 -43c-42 -35.333 -89.667 -54.666 -143 -57.999c-24 -1.33301 -39 4.66699 -45 18c-1.33301 2.66699 -1.66602 5.66699 -0.999023 9c0 2 0.166992 4 0.5 6s0.833008 3.83301 1.5 5.5s1.5 3.33398 2.5 5.00098
s2 3.5 3 5.5s2 3.66699 3 5l3.5 4.5c1.33301 1.66699 2.33301 3.16699 3 4.5c11.333 16 36 45 74 87l-1.5 0.5l-1.5 0.5c-4.66699 0.666992 -12.667 1.66699 -24 3s-20.166 2.5 -26.499 3.5s-13.666 2.66699 -21.999 5s-15.166 5.16602 -20.499 8.49902
c-3.33301 4 -5.33301 7.33301 -6 10c0 8 2.33301 15.167 7 21.5s9.33398 10.833 14.001 13.5s10.667 5.66699 18 9c16 6.66699 32.5 10.167 49.5 10.5s32.167 -4.5 45.5 -14.5c2 -2 2.66699 -4.33301 2 -7s-2.16699 -4.33398 -4.5 -5.00098s-4.83301 0 -7.5 2
c-10 8.66699 -22.667 12.667 -38 12s-30.666 -4.66699 -45.999 -12s-24.666 -15 -27.999 -23v-5c4 -4 13.667 -8 29 -12c6.66699 -1.33301 14 -2.66602 22 -3.99902s16.833 -2.66602 26.5 -3.99902s17.167 -2.33301 22.5 -3l139 140l128 129
c3.33301 18.667 10.666 42.334 21.999 71.001c11.333 32 26.333 59 45 81c17.333 18.667 32.333 25.667 45 21c25.333 -12.667 15 -46 -31 -100c-20 -23.333 -43.667 -48.666 -71 -75.999c-21.333 -88 -32 -198.667 -32 -332c1.33301 2.66699 7 10.667 17 24
c21.333 29.333 38.666 48.666 51.999 57.999c17.333 11.333 32.666 13.666 45.999 6.99902c7.33301 -4.66699 16.833 -14.167 28.5 -28.5s21.834 -23.833 30.501 -28.5c6.66699 -3.33301 14.334 -5 23.001 -5c18 0 40.333 10 67 30
c0.666992 0.666992 4.66699 4.16699 12 10.5l21 17.5z" />
    <glyph glyph-name="sk" unicode="sk" horiz-adv-x="477" 
d="M245 153h6.00098l2 0.5c1.33301 0.333008 2.33301 0.5 3 0.5c5.33301 0.666992 15.666 4 30.999 10c2.66699 1.33301 4.66699 2 6 2c-21.333 2 -37.333 -2.33301 -48 -13zM176.001 97c0 1.33301 -0.666992 2.66699 -2 4v1c-9.33301 19.333 -39.666 34 -90.999 44
c-16.667 -14 -34.334 -29.667 -53.001 -47c-12 -12 -20 -21.333 -24 -28c-1.33301 -2.66699 -2 -5 -2 -7v-1l1 -1c8.66699 -9.33301 26.667 -13 54 -11c40.667 0.666992 74 9 100 25c11.333 6 17 13 17 21zM341.001 412.001c21.333 29.333 38.6641 60.6699 51.9971 94.0029
c3.33301 7.33301 4.33301 16 3 26c0 4 -0.666992 6 -2 6h-1c-3.33301 -4 -6.66602 -8.33301 -9.99902 -13s-6.16602 -8.83398 -8.49902 -12.501s-4.83301 -8.83398 -7.5 -15.501s-4.66699 -11.834 -6 -15.501s-3.16602 -9.66699 -5.49902 -18s-4 -13.833 -5 -16.5
s-2.66699 -8.66699 -5 -18s-3.83301 -15 -4.5 -17zM10.999 182.005l-0.0078125 -2c2 -3.33301 7.33301 -6.33301 16 -9c4 -2 21.667 -6.33301 53 -13l49.5 42.5l55 48l47.5 43.5c19.333 18 36.5 35.167 51.5 51.5s29.167 33.166 42.5 50.499
c0.666992 2.66699 1.33398 6.33398 2.00098 11.001c2 9.33301 5.16699 21.333 9.5 36s9.83301 31.5 16.5 50.5s13.834 33.667 21.501 44s14.5 13.166 20.5 8.49902c4.66699 -2 7 -5.66699 7 -11c2 -14.667 -3 -34 -15 -58c-10.667 -23.333 -28.334 -51.333 -53.001 -84
c-14 -64.667 -24.333 -137 -31 -217h1c36.667 22 61.334 39.333 74.001 52l10 10c3.33301 2.66699 9.33301 11 18 25c2 3.33301 4.66699 4.33301 8 3s4.33301 -4 3 -8c0 -0.666992 -1.5 -3.5 -4.5 -8.5s-5.5 -8.5 -7.5 -10.5l-18 -19
c-16.667 -15.333 -36.334 -29.333 -59.001 -42l-9 -5l1 -0.5l1 -0.5c16.667 -5.33301 33 -16 49 -32c6 -8 14.667 -13.5 26 -16.5s22.333 -1.5 33 4.5c16 8 31.667 27.333 47 58c2 4 4.33301 4.66699 7 2c2 -1.33301 2 -3 0 -5c-4 -12 -12.667 -26 -26 -42
c-18.667 -24.667 -41 -33.667 -67 -27c-11.333 4 -23.666 12.667 -36.999 26c-14.667 14 -30.334 22.667 -47.001 26l-5 -2c-4.66699 -60.667 -7.66699 -107 -9 -139l-2 -19c0 -4 -2 -6 -6 -6s-6 2 -6 6c1.33301 4.66699 2 11 2 19
c0.666992 9.33301 4.33398 53.666 11.001 132.999c-13.333 -6.66699 -26 -10.667 -38 -12l-2 -0.5c-1.33301 -0.333008 -2.66602 -0.5 -3.99902 -0.5h-3c-0.666992 0.666992 -2 1 -4 1c-7.33301 3.33301 -10 7.33301 -8 12c2.66699 7.33301 10.334 12.5 23.001 15.5
s25.334 3.83301 38.001 2.5c8 77.333 17.667 144.333 29 201c-18.667 -22.667 -40.667 -46.667 -66 -72s-47.333 -46.166 -66 -62.499l-74 -63.5l-26 -23c46 -10 75 -24 87 -42l2 -1c2.66699 -6 4 -10.667 4 -14c0 -8 -3.66699 -15.167 -11 -21.5
s-13.666 -10.666 -18.999 -12.999s-13.333 -5.16602 -24 -8.49902c-24.667 -7.33301 -48.667 -11.333 -72 -12c-35.333 0 -56.333 6.66699 -63 20v1c0 2.66699 1 6.66699 3 12c4 7.33301 12.333 17.666 25 30.999c3.33301 2.66699 19.333 17 48 43
c-18.667 4 -34 7.66699 -46 11c-16 4.66699 -24 12 -24 22v4c3.33301 14 19 26 47 36c38.667 14 64.667 14.333 78 1v-1c2.66699 -2 3.33398 -4.33301 2.00098 -7s-3.33301 -4.33398 -6 -5.00098s-5 0 -7 2c0 0.666992 -0.333008 1.33398 -1 2.00098h-1
c-1.33301 2 -4.66602 3.33301 -9.99902 4c-13.333 1.33301 -30.5 -1.16699 -51.5 -7.5s-33.833 -14.5 -38.5 -24.5z" />
    <glyph glyph-name="sl" unicode="sl" horiz-adv-x="389" 
d="M382 427c27.333 36.667 42.666 74.668 45.999 114.001c-2 20 -7.66699 28.667 -17 26c-8 -2.66699 -16.667 -12.334 -26 -29.001c-21.333 -38 -39 -97 -53 -177c20.667 24.667 37.334 46.667 50.001 66zM86 66.001c0 -7.33301 6.66699 -11 20 -11
c16 0 31.5 3.16699 46.5 9.5s26.833 14.166 35.5 23.499c12 12 11.167 22.667 -2.5 32s-29.5 15 -47.5 17c-2 -2.66699 -5.5 -6.66699 -10.5 -12l-11.5 -12.5c-2.66699 -3 -6 -7 -10 -12s-7.5 -9.66699 -10.5 -14s-5.5 -8.83301 -7.5 -13.5
c-1.33301 -3.33301 -2 -5.66602 -2 -6.99902zM0 176.001l0.00390625 5.99609c0 14 8.33301 26.333 25 37c17.333 12 37.166 19 59.499 21s41.166 -3.33301 56.499 -16c0 -0.666992 0.333008 -1.66699 1 -3c3.33301 -4 3.66602 -7 0.999023 -9s-6.33398 -0.666992 -11.001 4
c-18 12 -39 14.667 -63 8s-40.667 -17 -50 -31c-4 -6.66699 -4.66699 -12.334 -2 -17.001c0 -0.666992 0.166992 -1 0.5 -1s0.5 -0.333008 0.5 -1c6 -6 20.333 -10.333 43 -13c7.33301 -1.33301 17.833 -2.5 31.5 -3.5s23.5 -2.16699 29.5 -3.5l21 -3
c8.66699 10 21.667 24.167 39 42.5l36 37.5l105 119c0 0.666992 0.166992 1.33398 0.5 2.00098s0.5 1.33398 0.5 2.00098c8.66699 57.333 21 107.333 37 150c0.666992 1.33301 1.33398 3 2.00098 5c14.667 36.667 29.667 58 45 64c4 2 8 1.66699 12 -1s6 -6 6 -10
c7.33301 -13.333 7.33301 -34.333 0 -63c-6 -20 -19.333 -45.333 -40 -76c-6.66699 -10 -17 -23.667 -31 -41s-22.667 -28.666 -26 -33.999c-13.333 -74 -24.333 -206 -33 -396l-1 -21c0 -2.66699 -1.66699 -4 -5 -4c-2.66699 0 -4 1.66699 -4 5c0 10.667 1 37 3 79
c4 116.667 14.333 226 31 328c-22 -26 -54.333 -62.167 -97 -108.5l-74 -80.5c0.666992 0 2 -0.333008 4 -1c24.667 -8 40.667 -17.667 48 -29c2.66699 -2.66699 4 -6 4 -10c0.666992 -1.33301 1 -3.33301 1 -6c0 -13.333 -9 -25 -27 -35c-23.333 -13.333 -48 -20 -74 -20
c-17.333 1.33301 -26 7 -26 17c0 2 1 5.66699 3 11c9.33301 16.667 25.666 37.334 48.999 62.001c-2.66699 0 -6.66699 0.666992 -12 2c-6 0.666992 -15.667 1.5 -29 2.5s-24.833 2.16699 -34.5 3.5s-18.5 3 -26.5 5c-6 2 -11.5 4.5 -16.5 7.5s-8.5 6.83301 -10.5 11.5
c-0.666992 0 -1 0.333008 -1 1v2c-0.666992 0.666992 -1 1.33398 -1 2.00098z" />
    <glyph glyph-name="ss" unicode="ss" horiz-adv-x="517" 
d="M386 60c0 2 -0.50293 3.83203 -1.50293 5.49902s-2.66699 3.33398 -5 5.00098l-5.5 4c-1.33301 1 -3.5 2.16699 -6.5 3.5s-4.83301 2.33301 -5.5 3c-15.333 8 -39 17 -71 27c-39.333 -20 -70.666 -41.667 -93.999 -65c-4 -4 -7.16699 -8.16699 -9.5 -12.5
s-4.16602 -8.83301 -5.49902 -13.5s-0.666016 -9 2.00098 -13s7 -7 13 -9c8 -2.66699 19 -4 33 -4c50 1.33301 95.333 16 136 44c13.333 10 20 18.333 20 25zM10.9971 58.999c4 -7.33301 12.668 -11.002 26.001 -11.002c10 0.666992 19 3.33398 27 8.00098s12.667 11 14 19
c0 2.66699 0.333008 4.33398 1 5.00098l-0.5 1l-0.5 1v2c-2.66699 7.33301 -6.33398 14.333 -11.001 21c-0.666992 -0.666992 -3 -2 -7 -4s-6.5 -3.33301 -7.5 -4s-3.33301 -2 -7 -4s-6.16699 -3.5 -7.5 -4.5s-3.5 -2.5 -6.5 -4.5s-5.33301 -3.83301 -7 -5.5l-5.5 -5.5
l-5 -5c-2 -2.66699 -3 -4.66699 -3 -6v-3zM243.998 160.997v-8.00195c0 -6 5 -12 15 -18c5.33301 -3.33301 17 -8 35 -14c0.666992 -0.666992 1.33398 -1 2.00098 -1c47.333 24 97.333 42.667 150 56c32 8 56.333 12 73 12c3.33301 0 5 -2 5 -6l-1.5 -1
c-1 -0.666992 -1.83301 -2.33398 -2.5 -5.00098c-4.66699 0.666992 -11 0.666992 -19 0c-61.333 -6 -125.666 -25.333 -192.999 -58c38 -12.667 64 -24.667 78 -36l2 -1c7.33301 -8 11 -14.667 11 -20c0 -12 -8.33301 -23.667 -25 -35
c-16 -11.333 -39.333 -21.666 -70 -30.999c-26 -7.33301 -50.333 -11.333 -73 -12c-31.333 0 -50 9 -56 27c-4 10.667 1.66699 24.334 17 41.001c22.667 22.667 52.334 43 89.001 61c-8.66699 3.33301 -15.667 6.16602 -21 8.49902s-11.166 6.66602 -17.499 12.999
s-9.5 13.166 -9.5 20.499v5c0 0.666992 0.166992 1.33398 0.5 2.00098l0.5 1c1.33301 6.66699 4.66602 13.334 9.99902 20.001l10 10c-58 -24.667 -115.667 -51.334 -173 -80.001c8.66699 -10.667 13 -21 13 -31c0 -14.667 -5.5 -25.834 -16.5 -33.501
s-24.167 -11.167 -39.5 -10.5c-16 0 -27.333 6.33301 -34 19v2v3v1.5v1.5c2 4.66699 8 11.334 18 20.001c10 8 24 17 42 27l-6 6c-4.66699 4 -11.5 9.5 -20.5 16.5s-15.167 12.167 -18.5 15.5c-12.667 11.333 -19 21 -19 29v6c6.66699 19.333 21 31 43 35
c15.333 4 29.333 4.16699 42 0.5s21.667 -9.83398 27 -18.501l3 -5c1.33301 -2 1.33301 -4 0 -6s-3 -3.16699 -5 -3.5s-4 0.5 -6 2.5c-2.66699 8.66699 -10.834 14.334 -24.501 17.001s-27.167 1.83398 -40.5 -2.49902s-21 -11.166 -23 -20.499v-3c0 -4 4.33301 -10 13 -18
c1.33301 -1.33301 6.16602 -5 14.499 -11s15.166 -11.5 20.499 -16.5s9.66602 -10.167 12.999 -15.5c69.333 34.667 139 67 209 97c0.666992 0.666992 1.66699 1.33398 3 2.00098s2.33301 1 3 1c15.333 8.66699 26 14 32 16c0 0.666992 0.666992 1 2 1
c6 -6.66699 7 -10 3 -10c-0.666992 0 -1 -0.333008 -1 -1c-2.66699 -1.33301 -6 -2.83301 -10 -4.5l-11.5 -5c-3.66699 -1.66699 -6.5 -3.16699 -8.5 -4.5c-21.333 -13.333 -36.666 -25 -45.999 -35c-4 -6 -6.66699 -11 -8 -15z" />
    <glyph glyph-name="st" unicode="st" horiz-adv-x="692" 
d="M477 469c0.666992 0 1.66699 1.66797 3 5.00098c-0.666992 -0.666992 -1.66699 -2.33398 -3 -5.00098zM277 96.001c-11.333 7.33301 -23.8311 13.1699 -37.498 17.5029s-32.167 8.16602 -55.5 11.499s-39 6 -47 8c-6 -6 -14.5 -13.833 -25.5 -23.5
s-20.833 -18.834 -29.5 -27.501s-16 -17.334 -22 -26.001c-6 -6.66699 -9.66699 -13.667 -11 -21v-2c2 -12.667 15.167 -20.667 39.5 -24s44.166 -3 59.499 1c53.333 4 95.666 16 126.999 36c21.333 14 26.333 26.667 15 38c-2 3.33301 -6.33301 7.33301 -13 12z
M132.002 203.005c-12 5.33301 -26.668 7.99414 -44.001 7.99414s-35 -4.33301 -53 -13s-21 -18.667 -9 -30h1c0 -0.666992 0.666992 -1.33398 2 -2.00098s2.33301 -1.33398 3 -2.00098c6.66699 -2.66699 15 -5 25 -7s17.833 -3.5 23.5 -4.5s16.167 -2.33301 31.5 -4
s24.333 -2.5 27 -2.5l50.5 43.5l56 48l50 45l53.5 51c16.667 16.333 32.334 32.833 47.001 49.5c25.333 28 46 54 62 78l-77.5 -6c-34.333 -2.66699 -65.333 -4.83398 -93 -6.50098s-54.5 -2.5 -80.5 -2.5h-14.5c-5 0 -11.167 0.166992 -18.5 0.5s-14.333 0.833008 -21 1.5
s-13 1.66699 -19 3s-10.5 2.83301 -13.5 4.5s-4.16699 3.5 -3.5 5.5c0.666992 3.33301 2.33398 4.33301 5.00098 3h1c13.333 -8.66699 41 -13 83 -13c20.667 0 43.5 0.666992 68.5 2s44.667 2.5 59 3.5s37.333 2.83301 69 5.5s51.834 4.66699 60.501 6
c1.33301 1.33301 3 3.5 5 6.5l5 7.5l4.5 7l4.5 7.5c1.33301 2.33301 2.5 5 3.5 8s1.83301 6.16699 2.5 9.5c8 33.333 16.333 64.666 25 93.999c0.666992 4 2 8 4 12c0 5.33301 3 6.66602 9 3.99902l2 -2c0.666992 -0.666992 1 -1.33398 1 -2.00098v-8
c-1.33301 -4.66699 -2.5 -11.5 -3.5 -20.5s-2.16699 -15.833 -3.5 -20.5c-4.66699 -21.333 -13.667 -44 -27 -68c-0.666992 -4 -1.83398 -9.66699 -3.50098 -17s-2.83398 -12.666 -3.50098 -15.999c38 2.66699 70.667 4 98 4c20.667 1.33301 41.667 0.333008 63 -3
c2.66699 0 6.16699 -0.5 10.5 -1.5s8.33301 -2.33301 12 -4s5.16699 -3.5 4.5 -5.5c-0.666992 -3.33301 -2.66699 -4.66602 -6 -3.99902c-20 6.66699 -48 10 -84 10c-23.333 0 -56.333 -1.33301 -99 -4c-37.333 -169.333 -59.666 -312.666 -66.999 -429.999
c-4 -75.333 -1.33301 -128 8 -158c9.33301 -27.333 25.333 -41 48 -41c16 0 34.333 11 55 33c32.667 34 69.667 97 111 189c9.33301 20 22.666 52 39.999 96c1.33301 3.33301 2.66602 7.33301 3.99902 12s2.33301 8 3 10s1.5 4 2.5 6s2 3.33301 3 4s2.5 1 4.5 1
c0.666992 -0.666992 1.16699 -1.33398 1.5 -2.00098s0.333008 -1.66699 0 -3l-1 -4c-0.333008 -1.33301 -0.833008 -3.16602 -1.5 -5.49902s-1.5 -4.5 -2.5 -6.5s-2.16699 -4.66699 -3.5 -8s-2.33301 -6 -3 -8l-42 -101.5c-10.667 -25 -26.667 -56.833 -48 -95.5
s-42 -69 -62 -91c-32 -35.333 -61 -45.333 -87 -30c-13.333 6.66699 -22.833 17.834 -28.5 33.501s-9.83398 35.834 -12.501 60.501c-2.66699 30.667 -2.66699 67 0 109c8 121.333 30 264.333 66 429c-1.33301 -0.666992 -3 -1 -5 -1c-32.667 -48 -86 -107 -160 -177
c-19.333 -18.667 -72.333 -65.334 -159 -140.001c16 -2.66699 28.667 -4.66699 38 -6s20.333 -3.66602 33 -6.99902s24 -7.16602 34 -11.499s19 -9.5 27 -15.5c14.667 -10 22 -21.667 22 -35c-1.33301 -7.33301 -5.16602 -14.333 -11.499 -21s-11.833 -11.167 -16.5 -13.5
l-22 -10.5c-29.333 -12.667 -65 -21 -107 -25c-66.667 -6.66699 -103 3.33301 -109 30v5c0.666992 4 1.66699 7.83301 3 11.5s3.5 7.33398 6.5 11.001s5.33301 6.66699 7 9s4.33398 5.5 8.00098 9.5s6.16699 6.33301 7.5 7c5.33301 6 13.833 14.333 25.5 25l26.5 24
c-5.33301 0.666992 -12 1.33398 -20 2.00098s-14.667 1.33398 -20 2.00098s-11.5 1.5 -18.5 2.5s-13 2.16699 -18 3.5s-10.333 3 -16 5s-10.5 4.66699 -14.5 8h-1c-6.66699 3.33301 -11.167 9 -13.5 17s-1.83301 15.667 1.5 23c10.667 18.667 30.5 30.334 59.5 35.001
s54.167 1.33398 75.5 -9.99902c3.33301 -1.33301 5 -3.66602 5 -6.99902s-1.16699 -6 -3.5 -8s-4.83301 -2 -7.5 0z" />
    <glyph glyph-name="the" unicode="the" horiz-adv-x="689" 
d="M530 166c8 14 14.332 28.999 18.999 44.999c2 6 2.16699 12.5 0.5 19.5s-5.5 8.83301 -11.5 5.5c-9.33301 -4.66699 -15.166 -16.167 -17.499 -34.5s-0.833008 -33.166 4.5 -44.499zM347.999 644.999c-5.33301 -12 -10.6699 -25.1641 -16.0029 -39.4971
s-9.66602 -27 -12.999 -38s-7.16602 -25.667 -11.499 -44l-9.5 -41l-10 -46c-4.66699 -21.667 -7.66699 -36.5 -9 -44.5c32.667 73.333 57.334 135.666 74.001 186.999c6.66699 22 11.667 41.667 15 59c2.66699 11.333 3.66699 21 3 29
c0 3.33301 -0.333008 5.66602 -1 6.99902l-0.5 1.5l-0.5 1.5c-1.33301 0 -3.33301 -2 -6 -6c-3.33301 -4.66699 -8.33301 -13.334 -15 -26.001zM357.995 160.002l1.99609 -0.0107422c10 -5.33301 19.833 -17.333 29.5 -36s15.834 -29.667 18.501 -33
c7.33301 -8.66699 15.5 -13.5 24.5 -14.5s17.5 0.666992 25.5 5s16.167 10.833 24.5 19.5s15 16.5 20 23.5s9.83301 14.167 14.5 21.5c-8.66699 16.667 -11.667 35.834 -9 57.501s10.334 36.5 23.001 44.5c6.66699 3.33301 12.667 3.66602 18 0.999023
s9.33301 -6.33398 12 -11.001c1.33301 -4 2 -9.33301 2 -16c0 -14 -7.33301 -34.333 -22 -61c-4 -8 -7.33301 -13.667 -10 -17c8 -10.667 19.333 -17.167 34 -19.5s29.667 -0.5 45 5.5c29.333 10.667 56.333 29.334 81 56.001c1.33301 1.33301 3 0.333008 5 -3
c0.666992 -2.66699 0.666992 -4.66699 0 -6c-27.333 -28.667 -55.666 -48 -84.999 -58c-16 -6 -32.5 -7.83301 -49.5 -5.5s-29.833 8.5 -38.5 18.5l-13 -16c-21.333 -25.333 -42 -41.666 -62 -48.999c-12.667 -4.66699 -23.667 -4.33398 -33 0.999023
s-16.166 12.833 -20.499 22.5s-9.66602 20.334 -15.999 32.001s-12.833 19.834 -19.5 24.501c-10 7.33301 -24 5.33301 -42 -6c-24.667 -16 -48.334 -39 -71.001 -69c-2 -2.66699 -4.16699 -3.33398 -6.5 -2.00098s-3.5 3.33301 -3.5 6
c2.66699 85.333 9.33398 167 20.001 245c0 2 0.333008 5.33301 1 10c-52 -110.667 -99 -193.667 -141 -249c-22 -28.667 -40.667 -46.667 -56 -54c-6 -2.66699 -11.667 -4 -17 -4h-5c-8.66699 0 -16 6.66699 -22 20c-8.66699 14 -13.667 34 -15 60
c-0.666992 9.33301 -1.16699 18.666 -1.5 27.999s-0.166016 19.333 0.500977 30s1.16699 19.667 1.5 27s1.16602 16.833 2.49902 28.5s2.16602 20.334 2.49902 26.001s1.5 15 3.5 28s3.33301 21.333 4 25s2.16699 12.834 4.5 27.501s3.5 23 3.5 25
c8.66699 54 16.334 96 23.001 126c-51.333 -7.33301 -88.333 -11 -111 -11c-4.66699 0 -9.66699 0.333008 -15 1s-11 1.33398 -17 2.00098s-10.667 2 -14 4s-4.33301 4.33301 -3 7s3.33301 3.33398 6 2.00098c18 -8.66699 69.667 -7.33398 155 3.99902l20 105
c0.666992 2.66699 2.16699 4.33398 4.5 5.00098s4.5 0.333984 6.5 -0.999023s2.66699 -3.33301 2 -6l-20 -101c36.667 5.33301 65.834 9 87.501 11s44.5 1.83301 68.5 -0.5s41 -7.83301 51 -16.5c2 -1.33301 2.66699 -3 2 -5s-1.83398 -3.16699 -3.50098 -3.5
s-3.16699 -0.166016 -4.5 0.500977c-9.33301 8.66699 -26.166 13.834 -50.499 15.501s-46.833 1.5 -67.5 -0.5s-49 -5.66699 -85 -11c-20.667 -103.333 -34.334 -186.666 -41.001 -249.999c-2.66699 -24 -4.5 -41.5 -5.5 -52.5s-1.66699 -27.333 -2 -49
s1.66699 -39.5 6 -53.5s10.5 -25 18.5 -33c2 -3.33301 4.66699 -5 8 -5c0.666992 -0.666992 1.66699 -1 3 -1c6 0 14 4 24 12c21.333 16.667 46.333 48 75 94c36 56 74.667 127.667 116 215c0.666992 0.666992 1.16699 1.66699 1.5 3s0.833008 2.33301 1.5 3
c16 118.667 41.333 215 76 289c10 22 18.333 34 25 36c4.66699 3.33301 8.5 2.83301 11.5 -1.5s4.5 -9.16602 4.5 -14.499c0.666992 -6.66699 0.666992 -13.167 0 -19.5s-1.83398 -13.166 -3.50098 -20.499s-3 -12.666 -4 -15.999s-3 -9.66602 -6 -18.999
s-4.83301 -14.666 -5.5 -15.999c-16 -50 -45 -121.667 -87 -215c-12 -66.667 -19.667 -156.334 -23 -269.001c24.667 27.333 46.334 46.333 65.001 57c19.333 11.333 33.666 14.666 42.999 9.99902z" />
    <glyph glyph-name="tt" unicode="tt" horiz-adv-x="374" 
d="M70 590c-10.667 -60 -21.332 -124.66 -31.999 -193.993l30 4c78.667 10 154.667 16.333 228 19l3 18c19.333 121.333 38.333 206.666 57 255.999c7.33301 16.667 14.333 25 21 25c8.66699 0 14 -9.33301 16 -28c3.33301 -16 4.33301 -35.333 3 -58
c-4 -56.667 -21 -127 -51 -211c52 1.33301 96.333 0.333008 133 -3c25.333 -4 41.333 -8 48 -12c5.33301 -6 6.66602 -10.667 3.99902 -14c0 -2.66699 -1.5 -5.33398 -4.5 -8.00098s-5.66699 -2.83398 -8 -0.500977s-1.83301 5.16602 1.5 8.49902c0.666992 0 1 0.333008 1 1
l1 1v1v1h-1c0 8.66699 -29 14 -87 16c-24 1.33301 -54.667 1.33301 -92 0c0 -0.666992 -0.333008 -1.83398 -1 -3.50098s-1.33398 -3.16699 -2.00098 -4.5c-14.667 -40.667 -32.334 -83.334 -53.001 -128.001c-6 -49.333 -9.66699 -78.666 -11 -87.999
c-12 -109.333 -18.667 -203.333 -20 -282c-0.666992 -27.333 0.666016 -62.666 3.99902 -105.999c0 -2.66699 -1 -4.83398 -3 -6.50098s-4.33301 -2 -7 -1s-4.33398 2.83301 -5.00098 5.5c-2.66699 23.333 -3.33398 59.333 -2.00098 108c2.66699 102 12.334 214 29.001 336
c-55.333 -110.667 -102.666 -192.334 -141.999 -245.001c-21.333 -28.667 -39.666 -49 -54.999 -61c-2 -1.33301 -4 -2.5 -6 -3.5s-4.5 -2 -7.5 -3s-5.16699 -2.16699 -6.5 -3.5h-4h-5c-8.66699 0 -16 2.83301 -22 8.5s-10.667 13.834 -14 24.501
s-5.66602 19.834 -6.99902 27.501s-2.66602 17.5 -3.99902 29.5c-3.33301 46 -1.66602 109 5.00098 189c6.66699 74 13.667 134.333 21 181c-53.333 -7.33301 -100 -16.333 -140 -27c-1.33301 -0.666992 -3.66602 -1.5 -6.99902 -2.5s-6.33301 -2 -9 -3
s-5.33398 -1.83301 -8.00098 -2.5s-4.83398 -0.833984 -6.50098 -0.500977s-2.83398 1.16602 -3.50098 2.49902c-0.666992 0.666992 -0.833984 1.5 -0.500977 2.5s1 1.83301 2 2.5s2 1.16699 3 1.5s2.33301 0.833008 4 1.5s3.33398 1.16699 5.00098 1.5l5 1l5 1
c1.66699 0.333008 3.16699 0.666016 4.5 0.999023s2.66602 0.833008 3.99902 1.5c48 11.333 95.667 20.333 143 27l10 67l13.5 89l6.5 42c0.666992 3.33301 2.33398 5.5 5.00098 6.5s5.33398 0.666992 8.00098 -1s3.66699 -4.16699 3 -7.5zM47.002 -63.9932
l3.00098 -0.00292969h1h2l2 1c8.66699 4 17.5 10.167 26.5 18.5s16 15.5 21 21.5s11.5 14.667 19.5 26c49.333 66.667 100 156.334 152 269.001c4 30.667 11 77 21 139c-78.667 -2.66699 -164.334 -10 -257.001 -22l-4 -26c-6 -45.333 -11.333 -88.666 -16 -129.999
s-8 -81 -10 -119c-4 -65.333 -0.666992 -113.666 10 -144.999c6 -21.333 15.667 -32.333 29 -33zM331.003 408.004c0 2 0.667969 3.33301 2.00098 4h-9h-9h-9c-0.666992 -4 -2.83398 -19 -6.50098 -45l-8.5 -59zM335.004 421.004c31.333 90 48.334 160.333 51.001 211
c2 34.667 -0.666992 59.667 -8 75l-2 1l-2 -2c0 -0.666992 -1.16699 -3 -3.5 -7s-3.83301 -7.33301 -4.5 -10c-8.66699 -21.333 -18.334 -57 -29.001 -107c-8.66699 -39.333 -18.667 -93.333 -30 -162c3.33301 0 8 0.166992 14 0.5s10.667 0.5 14 0.5z" />
    <glyph glyph-name="ub" unicode="ub" horiz-adv-x="435" 
d="M326 138c0.666992 1.33301 0.833008 3.33203 0.5 5.99902s-0.666016 4.83398 -0.999023 6.50098s-0.833008 3.83398 -1.5 6.50098s-1 4.66699 -1 6c-3.33301 20 -8.33301 30 -15 30c-4 -1.33301 -6.16699 -4.5 -6.5 -9.5s0.5 -10.333 2.5 -16
s4.16699 -10.834 6.5 -15.501s4.16602 -7.66699 5.49902 -9c6 -3.33301 9.33301 -5 10 -5zM270.999 481.999c-33.333 -86.667 -55.333 -171.002 -66 -253.002c56 80.667 99.333 162.667 130 246c13.333 37.333 21.666 72.666 24.999 105.999
c1.33301 5.33301 1.66602 14 0.999023 26s-4 16.667 -10 14c-3.33301 -1.33301 -6.66602 -3.66602 -9.99902 -6.99902s-6 -6.5 -8 -9.5l-8 -12.5c-3.33301 -5.33301 -5.66602 -8.66602 -6.99902 -9.99902c-16 -27.333 -31.667 -60.666 -47 -99.999zM84.999 184.997
c-8 -12 -13.8232 -20.3359 -17.4902 -25.0029s-9.5 -11.167 -17.5 -19.5s-16 -14.5 -24 -18.5c-0.666992 0 -1.33398 -0.166992 -2.00098 -0.5l-1 -0.5c-7.33301 -2 -13 -1.16699 -17 2.5s-6.33301 9.33398 -7 17.001s-0.833984 14.667 -0.500977 21
s1.16602 13.166 2.49902 20.499c0.666992 2.66699 2 4.33398 4 5.00098s4 0.333984 6 -0.999023s2.66699 -3.33301 2 -6c-0.666992 -4 -1.5 -8.33301 -2.5 -13s-1.66699 -10.334 -2 -17.001s0.666992 -11.667 3 -15s6.16602 -4.33301 11.499 -3c6 2 11 5 15 9
c18 16 36.333 39.333 55 70c0.666992 2.66699 2.33398 2.66699 5.00098 0c0.666992 -0.666992 0.666992 -1.66699 0 -3c-6 -18.667 -10 -36.334 -12 -53.001c-3.33301 -22 -0.666016 -35.667 8.00098 -41c1.33301 -1.33301 2.66602 -2 3.99902 -2
c6.66699 1.33301 14 5.66602 22 12.999c13.333 12.667 31.333 33.334 54 62.001l15 21c2 19.333 5.66699 41.333 11 66c30 154 71.667 266.333 125 337c2.66699 4 6.16699 8 10.5 12s9.5 7.16699 15.5 9.5s10.667 -0.5 14 -8.5c4.66699 -9.33301 5.66699 -23.666 3 -42.999
c-3.33301 -30.667 -12.333 -67 -27 -109c-28.667 -79.333 -75 -165.666 -139 -258.999c-2.66699 -22.667 -4.33398 -41.5 -5.00098 -56.5s0.666016 -32.167 3.99902 -51.5s9.66602 -33.666 18.999 -42.999c9.33301 -10 20.166 -13.333 32.499 -10s23 8.5 32 15.5
s16.167 14.167 21.5 21.5c10.667 15.333 17 29 19 41c-10.667 2.66699 -19.334 11.167 -26.001 25.5s-7 27.166 -1 38.499c11.333 11.333 20.333 9 27 -7s10 -32.667 10 -50v-3c2 -0.666992 5.66699 -1 11 -1c17.333 0.666992 34.333 6.33398 51 17.001s29.667 22.667 39 36
c2 2 4.16699 1.66699 6.5 -1s2.5 -5 0.5 -7c-16 -21.333 -39 -37.333 -69 -48c-10.667 -4 -20 -6 -28 -6c-2.66699 0 -7 0.666992 -13 2c-2.66699 -17.333 -10 -33.5 -22 -48.5s-25.667 -25.833 -41 -32.5c-23.333 -10 -42.333 -7.66699 -57 7c-20 18 -29 54.333 -27 109
c0 10 0.666992 20 2 30c-18.667 -27.333 -39.667 -51.666 -63 -72.999c-11.333 -9.33301 -20 -14.333 -26 -15c-7.33301 0 -12.833 3.16699 -16.5 9.5s-5.33398 14.5 -5.00098 24.5s1.16602 18.667 2.49902 26s3 14.666 5 21.999z" />
    <glyph glyph-name="ur" unicode="ur" horiz-adv-x="369" 
d="M240 267c0 -6.66699 -1.99512 -14.3359 -5.99512 -23.0029c0 -1.33301 0.333008 -2.83301 1 -4.5s1.5 -3.5 2.5 -5.5s1.5 -3.66699 1.5 -5c4.66699 -14 4.5 -32.333 -0.5 -55s-7.16699 -39.334 -6.5 -50.001c0.666992 -6.66699 2.83398 -11.667 6.50098 -15
s8.16699 -4.66602 13.5 -3.99902s10.666 1.83398 15.999 3.50098s11.166 4.16699 17.499 7.5s11.166 6.16602 14.499 8.49902s6.66602 4.5 9.99902 6.5c21.333 16 41.666 34.333 60.999 55c1.33301 1.33301 3.66602 2 6.99902 2c2 -2 2 -4.33301 0 -7l-32 -29.5
c-6 -5.66699 -15.667 -13.334 -29 -23.001s-26 -17.5 -38 -23.5c-14 -5.33301 -25 -7.33301 -33 -6c-1.33301 0 -3.66602 0.666992 -6.99902 2c-0.666992 0 -1 0.166992 -1 0.5s-0.333008 0.5 -1 0.5c-8 6 -12.5 14.667 -13.5 26s-0.166992 25.833 2.5 43.5
s4 29.834 4 36.501c0 9.33301 -1.66699 17.333 -5 24c-16.667 -25.333 -42.667 -54 -78 -86c0 -0.666992 -0.666992 -1.66699 -2 -3c-39.333 -35.333 -63 -41.666 -71 -18.999c-3.33301 7.33301 -5 21.666 -5 42.999c0.666992 2 1 4.83301 1 8.5s0.333008 6.5 1 8.5
c-15.333 -30 -31 -49 -47 -57l-3 -1c-0.666992 -0.666992 -2 -1 -4 -1c-15.333 -2 -22 11 -20 39c0 18.667 4 27.334 12 26.001c4 -0.666992 4.66699 -9.66699 2 -27s-0.666992 -25.666 6 -24.999h2h1c1.33301 0.666992 2.83301 1.33398 4.5 2.00098
s3.33398 1.66699 5.00098 3s3.16699 2.66602 4.5 3.99902s2.66602 2.83301 3.99902 4.5l3.5 4.5c1 1.33301 2.16699 3 3.5 5s2.5 3.66699 3.5 5s2 3 3 5s1.83301 3.33301 2.5 4c6 9.33301 12.667 20.666 20 33.999c0 3.33301 1.5 5 4.5 5s4.5 -1.66699 4.5 -5
c-4 -8.66699 -5.83301 -26.667 -5.5 -54s5.16602 -39.666 14.499 -36.999c5.33301 0.666992 11.333 3.33398 18 8.00098c26.667 18 55.667 46.667 87 86c10 11.333 18 22.333 24 33v1c-2.66699 5.33301 -3.16699 12 -1.5 20s5.5 12.333 11.5 13c6 0 9 -4 9 -12z" />
    <glyph glyph-name="ut" unicode="ut" horiz-adv-x="366" 
d="M295 371h11l2 11c0 3.33301 1.66699 13.333 5 30zM362 577c-4 -6.66699 -7.66699 -16.668 -11 -30.001c-6.66699 -20 -12.667 -42.667 -18 -68c14.667 40.667 24.667 73.334 30 98.001h-1zM496 358.999c0 -2 -0.500977 -3.66895 -1.50098 -5.00195
s-1.83301 -1.66602 -2.5 -0.999023c-10 -7.33301 -15.667 -8 -17 -2c0 4 3.66699 7.33301 11 10c-1.33301 0.666992 -6.66602 1.66699 -15.999 3c-5.33301 1.33301 -14 2.33301 -26 3c-33.333 1.33301 -77.333 1 -132 -1l-4 -24c-18 -98 -30.333 -225.333 -37 -382
c-1.33301 -28 -2 -56 -2 -84c0 -4 -2.16699 -6 -6.5 -6s-6.5 2 -6.5 6c0 13.333 1.66699 41.666 5 84.999c10.667 162.667 25 297.667 43 405h-4h-10c-17.333 -40 -39.666 -83 -66.999 -129c-18 -30.667 -34 -54.334 -48 -71.001c-16.667 -22 -32.334 -37 -47.001 -45
c-9.33301 -4 -17 -5.66699 -23 -5c-12 0 -20.333 6.83301 -25 20.5s-6 28.5 -4 44.5l-14.5 -15c-7.66699 -8 -14 -14.333 -19 -19s-10.833 -9 -17.5 -13c-5.33301 -2 -8.66602 -3 -9.99902 -3c-10.667 0 -16 9 -16 27v9c0 1.33301 0.166992 3.33301 0.5 6
s0.5 4.83398 0.5 6.50098s0.333008 3.5 1 5.5s1.66699 3.5 3 4.5s2.66602 1.16699 3.99902 0.5c4.66699 -0.666992 6.66699 -3 6 -7v-1c-2 -9.33301 -3 -17.666 -3 -24.999v-8c0 -5.33301 1 -8 3 -8c3.33301 0 7.33301 2 12 6c10.667 6.66699 28 22 52 46
c1.33301 1.33301 2.66602 1.5 3.99902 0.5s2 -2.16699 2 -3.5c-4 -21.333 -2.66699 -39.666 4 -54.999s18.667 -18.333 36 -9c14 6.66699 29.333 21 46 43c31.333 38.667 69 103.667 113 195c-45.333 -1.33301 -103 -6 -173 -14c-2 0 -4.66699 -0.333008 -8 -1
c-8.66699 -2 -13.334 -1 -14.001 3c-0.666992 0.666992 -0.5 1.5 0.5 2.5s2.5 1.66699 4.5 2s4.33301 0.833008 7 1.5s6.33398 1.16699 11.001 1.5s9 0.5 13 0.5s9.16699 0.333008 15.5 1s11.833 1 16.5 1l60 4.5c30.667 2.33301 54 3.83301 70 4.5
c10.667 22.667 21.334 47 32.001 73c7.33301 46 20 91.333 38 136c0 0.666992 0.333008 1.5 1 2.5s1 1.83301 1 2.5c0 2 1.66699 3.66699 5 5v1h2c0.666992 0 1.66699 -0.666992 3 -2c0.666992 0 1 -0.333008 1 -1v-4c0 -0.666992 -0.166992 -1.66699 -0.5 -3
s-0.5 -2.33301 -0.5 -3c-1.33301 -9.33301 -3 -18.5 -5 -27.5s-5 -19.5 -9 -31.5s-6.83301 -20 -8.5 -24s-5.5 -13.833 -11.5 -29.5s-9 -23.834 -9 -24.501c-1.33301 -6 -3.33301 -16.833 -6 -32.5s-5 -27.834 -7 -36.501c66.667 2.66699 119.667 2.33398 159 -0.999023
l11 -2c9.33301 -1.33301 14 -4.66602 14 -9.99902z" />
    <glyph glyph-name="utt" unicode="utt" horiz-adv-x="512" 
d="M479 372l14.498 42.501l16 47c3.66699 11 7.83398 25.167 12.501 42.5s8.33398 33.333 11.001 48c0.666992 0 1 0.666992 1 2c-2.66699 -2.66699 -6 -8 -10 -16c-3.33301 -3.33301 -7.33301 -13 -12 -29c-12.667 -32.667 -24.667 -78.334 -36 -137.001h3z
M469.998 348.001c0.666992 2 1.83203 5 3.49902 9s2.83398 7 3.50098 9h-3c-0.666992 -3.33301 -2 -9.33301 -4 -18zM463.996 367.001c-36.667 1.33301 -95.999 0.998047 -177.999 -1.00195v-2c-10.667 -47.333 -18.667 -97.333 -24 -150
c-3.33301 -33.333 -5 -58.333 -5 -75c0 -15.333 0.166992 -27.166 0.5 -35.499s2.16602 -18 5.49902 -29s8 -18.833 14 -23.5c11.333 -6.66699 26.333 -0.666992 45 18c15.333 15.333 31 35.333 47 60c24.667 38.667 51.667 94.334 81 167.001zM272.997 370.999h8l6 30
c-1.33301 -3.33301 -3.5 -8.33301 -6.5 -15s-5.5 -11.667 -7.5 -15zM355.997 592.999c-15.333 -30 -29.998 -70.6699 -43.998 -122.003c1.33301 2.66699 5.16602 11.334 11.499 26.001s10.666 25 12.999 31s5.33301 14.667 9 26s6.5 22 8.5 32
c0.666992 0.666992 1 1.83398 1 3.50098s0.333008 2.83398 1 3.50098zM536.999 568.996c1.33301 0 2.50195 -0.84082 3.50195 -2.50781s1.5 -2.83398 1.5 -3.50098c0.666992 -0.666992 1 -1.66699 1 -3c0.666992 -2.66699 0.333984 -6 -0.999023 -10
c-5.33301 -28 -19.666 -77 -42.999 -147c-2.66699 -9.33301 -6 -19.666 -10 -30.999c52.667 -2 90.334 -5 113.001 -9c20.667 -3.33301 32.334 -8 35.001 -14l2 -3v-5c0 -2.66699 -1 -5.5 -3 -8.5s-4.16699 -5 -6.5 -6s-4.5 -0.5 -6.5 1.5c-1.33301 2 -0.333008 4.33301 3 7
s5 4.66699 5 6c0 8.66699 -22.333 15 -67 19c-16.667 2 -42.667 3.66699 -78 5c-4.66699 -14 -12.667 -35.333 -24 -64c0 -1.33301 -0.333008 -3.66602 -1 -6.99902s-1 -5.66602 -1 -6.99902c-14.667 -88 -22.667 -163.333 -24 -226c-1.33301 -31.333 1 -55.666 7 -72.999
v-1c0.666992 -2 0.333984 -3.83301 -0.999023 -5.5s-3 -2.5 -5 -2.5s-3.66699 1 -5 3c-6.66699 18.667 -9 45 -7 79c1.33301 57.333 7.66602 123 18.999 197c-20 -48.667 -43.333 -93.667 -70 -135c-0.666992 -0.666992 -2.33398 -3.16699 -5.00098 -7.5
s-4.5 -7.16602 -5.5 -8.49902l-5.5 -7.5c-2.66699 -3.66699 -4.66699 -6.33398 -6 -8.00098s-3.33301 -4.33398 -6 -8.00098s-4.83398 -6.33398 -6.50098 -8.00098s-3.66699 -3.83398 -6 -6.50098s-4.66602 -5 -6.99902 -7l-7 -6c-2.33301 -2 -4.83301 -4 -7.5 -6
c-16.667 -10.667 -30 -12.667 -40 -6c-6.66699 4.66699 -11.667 12.834 -15 24.501s-5.33301 21.834 -6 30.501s-1 21.334 -1 38.001c2 65.333 11.667 141 29 227c-2 -0.666992 -5.33301 -1 -10 -1c-47.333 -99.333 -88 -175.666 -122 -228.999
c-9.33301 -14 -17 -24 -23 -30c-2.66699 -3.33301 -5.33398 -5.66602 -8.00098 -6.99902c-0.666992 0 -1.5 -0.166992 -2.5 -0.5l-1.5 -0.5h-2c-16.667 8.66699 -21.334 37.334 -14.001 86.001c-24 -30 -45 -51 -63 -63c-6.66699 -3.33301 -11 -5 -13 -5l-2.5 -0.5
c-1.66699 -0.333008 -2.83398 -0.5 -3.50098 -0.5h-4c-6.66699 3.33301 -10.334 5.33301 -11.001 6c-4 6 -6 15 -6 27c0 1.33301 0.166992 4.16602 0.5 8.49902s0.666016 8.33301 0.999023 12s1 7.33398 2 11.001s2.33301 6.5 4 8.5s3.5 2.66699 5.5 2
c2 0 3.33301 -1.16699 4 -3.5s0.833984 -5.33301 0.500977 -9s-1 -7.16699 -2 -10.5s-1.83301 -6.83301 -2.5 -10.5s-1 -6.16699 -1 -7.5c-1.33301 -5.33301 -1.16602 -10.5 0.500977 -15.5s4.5 -7.5 8.5 -7.5c0.666992 0 1.5 0.166992 2.5 0.5s1.83301 0.5 2.5 0.5
c3.33301 0 6.33301 0.5 9 1.5s5.16699 2.33301 7.5 4s4.33301 3.16699 6 4.5l6 5c2.33301 2 4.16602 3.66699 5.49902 5l17 17c14 16 24 28 30 36c1.33301 1.33301 2.66602 1.66602 3.99902 0.999023s2 -1.66699 2 -3c-6.66699 -32.667 -8 -57.667 -4 -75
c0.666992 -2.66699 2.33398 -6.66699 5.00098 -12s5 -7 7 -5c1.33301 0.666992 3.33301 2.33398 6 5.00098c6 6 13.667 16 23 30c33.333 52.667 73.333 127.667 120 225h-7.5h-6.5c-25.333 -1.33301 -61.166 -3.5 -107.499 -6.5s-72.833 -5.5 -79.5 -7.5
c-2 -0.666992 -3.5 -0.333984 -4.5 0.999023s-1.16699 2.83301 -0.5 4.5s1.66699 2.83398 3 3.50098c70.667 4.66699 133.667 8 189 10h8.5h8.5l8.5 20c3.66699 8.66699 6.83398 15 9.50098 19l11 24c17.333 69.333 33.666 120 48.999 152c4 10.667 8 17 12 19l1 1
c2 -0.666992 3.66699 -2 5 -4v-2c0 -0.666992 -0.166992 -1.66699 -0.5 -3s-0.5 -2.33301 -0.5 -3c-3.33301 -15.333 -7.66602 -30.666 -12.999 -45.999c-12.667 -34.667 -28.667 -73 -48 -115c-3.33301 -13.333 -8 -33.333 -14 -60c77.333 2 136.666 2.33301 177.999 1
c12 60.667 27 113.334 45 158.001c1.33301 2 4.16602 7.16699 8.49902 15.5s8.16602 14.5 11.499 18.5c2 2 3.66699 3.33301 5 4c0 0.666992 0.333008 1 1 1h2z" />
    <glyph glyph-name="wh" unicode="wh" horiz-adv-x="418" 
d="M270 419c-11.333 -58 -18.6699 -98.332 -22.0029 -120.999l16 16l33 38l11 13c16.667 23.333 28.667 42 36 56l11 23c22 49.333 28.667 95 20 137c-1.33301 6 -2.66602 11 -3.99902 15s-3.83301 7.66699 -7.5 11s-7.83398 4.66602 -12.501 3.99902
c-3.33301 -0.666992 -6.33301 -2 -9 -4s-5.16699 -4 -7.5 -6s-4.66602 -5.16699 -6.99902 -9.5s-4.16602 -7.5 -5.49902 -9.5s-3.16602 -5.33301 -5.49902 -10s-3.5 -7.33398 -3.5 -8.00098c-8.66699 -15.333 -18 -41.666 -28 -78.999c-4 -14.667 -9 -36.667 -15 -66z
M83.9961 172.001c0 -30.667 4.66309 -46 13.9961 -46v-2h2l10 9c10 16 17.333 40.333 22 73c0 1.33301 0.666992 2.33301 2 3c32 20 65 45.667 99 77l0.5 1c0.333008 0.666992 0.5 1.33398 0.5 2.00098c14 84 27.333 150.667 40 200c12.667 44.667 24.667 76.667 36 96
c2.66699 5.33301 5.66699 10.333 9 15s8 9.83398 14 15.501s11.833 8.5 17.5 8.5s11.834 -2 18.501 -6c10 -8 16.333 -22.333 19 -43s2.5 -41 -0.5 -61s-7.16699 -36.333 -12.5 -49l-10 -24l-11 -23c-8 -16.667 -18.833 -33.834 -32.5 -51.501s-24.834 -31 -33.501 -40
l-42 -42.5c-11.333 -63.333 -18.333 -118.333 -21 -165v-10c18 28 35 49.667 51 65c12 11.333 22 17 30 17c6.66699 0 11.834 -2.5 15.501 -7.5s6.5 -12.333 8.5 -22s3.33301 -15.5 4 -17.5c10.667 -26.667 23.334 -34.667 38.001 -24c14.667 9.33301 30.667 31 48 65
c1.33301 2 3.16602 2.5 5.49902 1.5s3.5 -2.5 3.5 -4.5c-19.333 -35.333 -36.333 -58 -51 -68c-25.333 -15.333 -44.666 1 -57.999 49c-0.666992 4 -1.33398 6.83301 -2.00098 8.5s-2 3.83398 -4 6.50098s-4 3.66699 -6 3s-5.33301 -1.33398 -10 -2.00098
c-14 -8 -31.667 -28 -53 -60c-5.33301 -7.33301 -12.333 -19 -21 -35c-2 -3.33301 -4.66699 -4.5 -8 -3.5s-5 3.16699 -5 6.5c-1.33301 27.333 2.33398 72.666 11.001 135.999l8 49c-31.333 -28 -61.333 -51 -90 -69c0 -0.666992 -0.333008 -2.33398 -1 -5.00098
c-1.33301 -10.667 -2.83301 -19 -4.5 -25s-4 -13.667 -7 -23s-6.83301 -16.833 -11.5 -22.5s-10 -9.5 -16 -11.5v-1l-1 -1l-1 1c-5.33301 -2 -9.83301 0.5 -13.5 7.5s-6 15.667 -7 26s-1.66699 21 -2 32s-0.166016 19.833 0.500977 26.5l-17 -32
c-0.666992 -1.33301 -3 -5.5 -7 -12.5l-9 -15.5c-2 -3.33301 -5 -7.66602 -9 -12.999s-8 -9.5 -12 -12.5s-8.33301 -5.5 -13 -7.5h-1h-8c-9.33301 0 -14 6.66699 -14 20c0 4.66699 0.666992 9.33398 2 14.001l4 13l0.5 3.5c0.333008 2.33301 0.833008 4.33301 1.5 6
s1.33398 3.66699 2.00098 6s1.5 4.16602 2.5 5.49902s2 2.83301 3 4.5s2.16699 2.66699 3.5 3s2.33301 0.166016 3 -0.500977c2 -0.666992 3.33301 -2 4 -4s0.5 -4.33301 -0.5 -7s-2 -5.16699 -3 -7.5s-2.16699 -4.83301 -3.5 -7.5s-2 -4.33398 -2 -5.00098
s-0.333008 -2 -1 -4s-1.33398 -3.83301 -2.00098 -5.5s-1.33398 -3.66699 -2.00098 -6s-1.16699 -4.5 -1.5 -6.5s-0.5 -4 -0.5 -6s0.5 -3.5 1.5 -4.5s2.16699 -1.5 3.5 -1.5h3c0.666992 0.666992 1 1.33398 1 2.00098l1 -1h2c1.33301 1.33301 3.83301 3.5 7.5 6.5
s6.5 5.5 8.5 7.5c16.667 18.667 34.667 47.334 54 86.001c0.666992 2 1.83398 2.66699 3.50098 2s2.5 -1.66699 2.5 -3l-0.5 -26c-0.333008 -17.333 -0.166016 -26 0.500977 -26z" />
    <glyph glyph-name=".notdef" horiz-adv-x="364" 
d="M33 0v666h265v-666h-265zM66 33h199v600h-199v-600z" />
    <glyph glyph-name="space" unicode=" " horiz-adv-x="348" 
 />
    <glyph glyph-name="exclam" unicode="!" horiz-adv-x="129" 
d="M20 108c-1.33301 0 -2.66797 -0.500977 -4.00098 -1.50098s-2.5 -2.16699 -3.5 -3.5s-1.5 -2.33301 -1.5 -3v-1c-2 -4 -5 -4.33301 -9 -1c-1.33301 2 -1.66602 4 -0.999023 6v1c0 4 3.33301 7.5 10 10.5s12 2.83301 16 -0.5c1.33301 -1.33301 2 -2.66602 2 -3.99902
s-0.833008 -2.5 -2.5 -3.5s-3.5 -1.16699 -5.5 -0.5c0 0.666992 -0.333008 1 -1 1zM114.998 615.999c0.666992 2.66699 2.33496 4.33301 5.00195 5s5.16699 0.166992 7.5 -1.5s3.16602 -4.16699 2.49902 -7.5c-1.33301 -4.66699 -6.83301 -26.334 -16.5 -65.001l-19 -75.5
c-3 -11.667 -8.5 -34.5 -16.5 -68.5s-14 -60.5 -18 -79.5s-8.5 -42.167 -13.5 -69.5l-13.5 -76c0 -2 -0.333008 -4.66699 -1 -8l-1.5 -7.5c-0.333008 -1.66699 -0.666016 -3.16699 -0.999023 -4.5s-1 -2.33301 -2 -3s-2.16699 -0.666992 -3.5 0
c-0.666992 0 -1.33398 0.5 -2.00098 1.5s-1 2.16699 -1 3.5v5c0 2 0.166992 4.5 0.5 7.5s0.833008 5.83301 1.5 8.5l2.5 10.5c1 4.33301 2 8.33301 3 12s2 8.16699 3 13.5s2.16699 10.333 3.5 15l13.5 68.5l15 77c4.33301 23 9.33301 47.667 15 74l16.5 76.5
c5.33301 24.667 10.666 47.334 15.999 68.001z" />
    <glyph glyph-name="quotedbl" unicode="&#x22;" horiz-adv-x="111" 
d="M91 361c1.33301 6 4.33203 7.00098 8.99902 3.00098l3 -5c-6.66699 -22.667 -15 -44.334 -25 -65.001c-1.33301 -1.33301 -2.66602 -2 -3.99902 -2s-2.5 0.666992 -3.5 2s-1.16699 3 -0.5 5c10 19.333 17 40 21 62zM40.999 310.001c12 20 18 38.668 18 56.001v2
c0 4 1.66699 6 5 6c4.66699 0 7 -1.66699 7 -5v-4c0 -0.666992 -0.166992 -1.83398 -0.5 -3.50098s-0.5 -2.83398 -0.5 -3.50098c-1.33301 -5.33301 -3.16602 -11.166 -5.49902 -17.499s-5.33301 -13 -9 -20s-5.83398 -11.833 -6.50098 -14.5
c-1.33301 -2 -2.83301 -3 -4.5 -3s-3 0.666992 -4 2s-0.833008 3 0.5 5z" />
    <glyph glyph-name="numbersign" unicode="#" horiz-adv-x="165" 
d="M102 264c0.666992 2 2.32617 3.33008 4.99316 3.99707s4.83398 0.166992 6.50098 -1.5s1.83398 -3.83398 0.500977 -6.50098c-3.33301 -10.667 -7 -23.334 -11 -38.001l30 -3c0.666992 0 1.33398 -0.666992 2.00098 -2c0 -0.666992 -0.333008 -1 -1 -1
c-8 -2.66699 -20 -7.33398 -36 -14.001l-3 -11.5c-1.33301 -5 -2.5 -9.66699 -3.5 -14s-2.16699 -8.5 -3.5 -12.5h1c1.33301 0 3.66602 -0.166992 6.99902 -0.5s5.66602 -0.833008 6.99902 -1.5c4 0 8.16699 -0.833008 12.5 -2.5s5.83301 -4.16699 4.5 -7.5
c-1.33301 -2 -3.33301 -2.66699 -6 -2h-1l-12 3l-13 2h-2l-15 -72c0 -3.33301 -1.66699 -4.66602 -5 -3.99902c-2 0 -3 1.66699 -3 5c0.666992 5.33301 2.33398 16.333 5.00098 33s5.33398 29.667 8.00098 39c-1.33301 0 -3.66602 0.166992 -6.99902 0.5s-6 0.5 -8 0.5h-13
c-3.33301 -10.667 -6.66602 -27.667 -9.99902 -51c0 -3.33301 -1.66699 -4.66602 -5 -3.99902c-2.66699 0 -4 2 -4 6c2 18 4.66699 34.333 8 49c-7.33301 0 -17.666 -0.333008 -30.999 -1c-3.33301 0 -5 1.33301 -5 4c0 2 0.333008 3.33301 1 4
c3.33301 2.66699 7 5.33398 11 8.00098s9.16699 5.33398 15.5 8.00098s10.833 4.66699 13.5 6c1.33301 8.66699 3.66602 19 6.99902 31c-2 -0.666992 -4.33301 -1 -7 -1s-5.16699 -0.166992 -7.5 -0.5s-4.16602 -0.833008 -5.49902 -1.5
c-1.33301 0 -4.66602 -0.666992 -9.99902 -2s-9.33301 -2.16602 -12 -2.49902s-5 0.5 -7 2.5c-0.666992 2.66699 0.833008 4.83398 4.5 6.50098s7.66699 2.66699 12 3s8.16602 0.5 11.499 0.5c0.666992 0 1.83398 0.166992 3.50098 0.5s3.16699 0.5 4.5 0.5
c3.33301 0.666992 8 1 14 1l9 39c0.666992 2.66699 2.16699 4.16699 4.5 4.5s4.33301 -0.166992 6 -1.5s2.16699 -3.33301 1.5 -6c-2 -10.667 -5 -22.667 -9 -36h6c10 0 17.667 -0.333008 23 -1zM36.9922 165.997c0.666992 5.33301 1.33301 8.66602 2 9.99902
c0 -0.666992 -2.5 -2.16699 -7.5 -4.5s-8.5 -4.16602 -10.5 -5.49902h5h6h5zM75.9912 165.997c2 3.33301 3.66699 8.83203 5 16.499s2.33301 12.167 3 13.5c-2 -0.666992 -4.66699 -1.66699 -8 -3s-6 -2.66602 -8 -3.99902l-17 -7c0 -1.33301 -0.333008 -3 -1 -5
s-1.16699 -4 -1.5 -6s-0.5 -3.66699 -0.5 -5h11h17zM53.9912 189.996c4 2 9.66699 4.33105 17 6.99805s12.333 4.33398 15 5.00098c1.33301 8 2.66602 13.333 3.99902 16h-21h-4h-4c-1.33301 -3.33301 -2.66602 -8.16602 -3.99902 -14.499s-2.33301 -10.833 -3 -13.5z
M98.9912 207.994c6 2 15.335 5.33105 28.002 9.99805c-10.667 0.666992 -18.667 1 -24 1c-0.666992 -1.33301 -1.33398 -3.16602 -2.00098 -5.49902s-1.33398 -4.16602 -2.00098 -5.49902z" />
    <glyph glyph-name="dollar" unicode="$" horiz-adv-x="240" 
d="M101 178c-1.33301 -7.33301 -4.33301 -26 -9 -56c35.333 -3.33301 65 0.666992 89 12c3.33301 1.33301 5.66602 3 6.99902 5v2c-0.666992 0 -1 0.166992 -1 0.5s-0.333008 0.5 -1 0.5c-4.66699 6.66699 -18 13.667 -40 21c-5.33301 2 -13.166 4.5 -23.499 7.5
s-17.5 5.5 -21.5 7.5zM44 219c2 -2 7 -5.33301 15 -10c4.66699 -2.66699 17.667 -7.66699 39 -15l4 23.5c2 11.667 3.33301 20.167 4 25.5c-34 0 -54.667 -5.33301 -62 -16c-0.666992 -0.666992 -1 -1.66699 -1 -3v-1c0 -1.33301 0.333008 -2 1 -2v-1v-1zM201 144
l-0.000976562 -1.00195c0 -0.666992 -0.666992 -2 -2 -4c2 -19.333 -26.667 -29 -86 -29c-2.66699 0 -6.66699 0.166992 -12 0.5s-9.33301 0.5 -12 0.5c0 -1.33301 -0.166992 -3.33301 -0.5 -6s-0.5 -4.66699 -0.5 -6v-5.5v-4.5v-8c0 -3.33301 -1.66699 -5 -5 -5
s-5 1.33301 -5 4v1c0 2 1.33301 12 4 30c-19.333 0 -37.5 2.66699 -54.5 8s-26.167 13.666 -27.5 24.999v7c0.666992 2 1.83398 3.16699 3.50098 3.5s3.16699 0 4.5 -1s1.66602 -2.5 0.999023 -4.5v-4c0 -13.333 21 -22 63 -26c1.33301 0 3.33301 -0.166992 6 -0.5
s4.66699 -0.5 6 -0.5c1.33301 10 4.66602 29.333 9.99902 58c-0.666992 0 -3.16699 0.666992 -7.5 2s-6.83301 2.16602 -7.5 2.49902s-2.83398 1.16602 -6.50098 2.49902s-6.16699 2.33301 -7.5 3l-7 3.5c-3.33301 1.66699 -5.66602 3 -6.99902 4l-5.5 4
c-2.33301 1.66699 -4.16602 3.33398 -5.49902 5.00098l-4.5 5.5c-1.66699 2 -2.83398 4 -3.50098 6c-0.666992 0.666992 -1 1.66699 -1 3v5c0 10.667 8.5 18 25.5 22s33.5 5.33301 49.5 4l6 34c0.666992 2 1.83398 3.33301 3.50098 4s3.33398 0.333984 5.00098 -0.999023
s2.16699 -2.66602 1.5 -3.99902c-2 -8 -4.33301 -18.333 -7 -31l-0.5 -1l-0.5 -1c0.666992 0 1.66699 -0.166992 3 -0.5s2.33301 -0.5 3 -0.5c23.333 -2.66699 38 -10 44 -22v-2l1 -1c0.666992 -2 0.333984 -3.5 -0.999023 -4.5s-2.83301 -1.33301 -4.5 -1
s-2.83398 1.16602 -3.50098 2.49902v4v1c-4.66699 8.66699 -16.334 14.334 -35.001 17.001h-3.5h-3.5l-2.5 -14.5c-1 -5.66699 -2.16699 -11.667 -3.5 -18s-2.66602 -12.166 -3.99902 -17.499c36 -11.333 59.667 -19.666 71 -24.999c12.667 -6 20.667 -12.667 24 -20l1 -1z
" />
    <glyph glyph-name="percent" unicode="%" horiz-adv-x="211" 
d="M90 119c10 4.66699 13.667 12.332 11 22.999c0 2.66699 -0.666992 5 -2 7c0 0.666992 -0.333008 1.33398 -1 2.00098c0 0.666992 -0.666992 1.5 -2 2.5l-2 1.5c0 0.666992 -0.666992 1 -2 1c-1.33301 0.666992 -2.33301 1 -3 1c-4 0.666992 -7.33301 -1.5 -10 -6.5
s-4 -10.5 -4 -16.5c0 -10.667 2.66699 -16 8 -16h5l0.5 0.5c0.333008 0.333008 0.833008 0.5 1.5 0.5zM61 134.998c0.666992 8.66699 3.5 16.334 8.5 23.001s11.5 10 19.5 10c0.666992 0 1.66699 -0.333008 3 -1s2.33301 -1 3 -1h1c9.33301 -6.66699 14 -14.334 14 -23.001
c0 -10 -2 -18.5 -6 -25.5s-10.333 -10.5 -19 -10.5h-4c-13.333 0 -20 9.33301 -20 28zM10 103.998c-2 -2.66699 -4.3291 -3.50195 -6.99609 -2.50195s-3.66699 3.16699 -3 6.5c2 6.66699 9.66699 22.667 23 48c38 74 77.333 141.333 118 202c10.667 16 18 26.333 22 31
l4.5 7c1.66699 2.66699 2.66699 4.33398 3 5.00098s1.5 1.5 3.5 2.5s4 0.5 6 -1.5c0.666992 -0.666992 1.16699 -1.5 1.5 -2.5s0.166016 -2.16699 -0.500977 -3.5s-1.33398 -2.33301 -2.00098 -3s-1.83398 -2 -3.50098 -4s-3.16699 -3.66699 -4.5 -5
c-26.667 -33.333 -60.334 -85 -101.001 -155c-32.667 -61.333 -52.667 -102.666 -60 -123.999v-1zM72.0039 403.996c-6.66699 -4 -10.667 -11.334 -12 -22.001c0 -9.33301 2 -15 6 -17c0.666992 0 1.16699 -0.166992 1.5 -0.5l0.5 -0.5h1v-2l2 1c2.66699 0 5.5 2 8.5 6
s5.33301 8.33301 7 13s2.5 8.33398 2.5 11.001c0 8.66699 -2.33301 13 -7 13h-6l-1 -1h-2zM98.0039 393.995c0 -9.33301 -2.5 -17.833 -7.5 -25.5s-11.5 -12.167 -19.5 -13.5l-0.5 0.5l-0.5 0.5l-1 1l-1 -1v-2h-1c-6.66699 0 -12 2.83301 -16 8.5s-6 12.167 -6 19.5
c0 16 7 26.667 21 32l2 2h3l2 0.5l2 0.5h8c10 0 15 -7.66699 15 -23z" />
    <glyph glyph-name="ampersand" unicode="&#x26;" horiz-adv-x="186" 
d="M75 141c0.666992 12 3 29.499 7 52.499s6 35.5 6 37.5c-34.667 -12.667 -58 -27 -70 -43c-5.33301 -8.66699 -8 -16.334 -8 -23.001c2.66699 -8 4 -12.333 4 -13c8.66699 -10.667 27 -16.667 55 -18h5c0 0.666992 0.166992 1.83398 0.5 3.50098s0.5 2.83398 0.5 3.50098z
M50 272.999v-1.00098c0 -2 1.16699 -3.66699 3.5 -5s5.5 -2.5 9.5 -3.5s7.66699 -2 11 -3s7.16602 -1.83301 11.499 -2.5s6.83301 -1 7.5 -1l2.5 12c1 4.66699 1.83301 9 2.5 13s1.33398 7.33301 2.00098 10c0 0.666992 0.166992 1.33398 0.5 2.00098l0.5 1
c-18.667 0 -33.667 -4.33301 -45 -13c-4 -3.33301 -6 -6.33301 -6 -9zM126 247.998c-11.333 0.666992 -19.667 1.33203 -25 1.99902c-0.666992 -1.33301 -1.16699 -3 -1.5 -5s-0.5 -3.66699 -0.5 -5c2 0.666992 11 3.33398 27 8.00098zM105.999 326.996
c0 2 0.828125 3.16992 2.49512 3.50293s3.33398 0 5.00098 -1s2.16699 -2.5 1.5 -4.5l-5 -21c12.667 0 23.334 -3.66699 32.001 -11c4.66699 -3.33301 5.33398 -6.33301 2.00098 -9c-2 -1.33301 -3.66699 -1.66602 -5 -0.999023s-3.16602 2.16699 -5.49902 4.5
s-3.83301 3.5 -4.5 3.5c-6.66699 3.33301 -13.334 5 -20.001 5l-0.5 -1.5c-0.333008 -1 -0.5 -1.83301 -0.5 -2.5c-0.666992 -2.66699 -1.66699 -7.83398 -3 -15.501s-2.66602 -13.834 -3.99902 -18.501c14 -1.33301 29.667 -2 47 -2c1.33301 0 2 -1.5 2 -4.5
s-0.666992 -4.5 -2 -4.5c-22 -4 -39 -8.33301 -51 -13c-1.33301 -6.66699 -3.66602 -21.5 -6.99902 -44.5s-6.66602 -40.167 -9.99902 -51.5c0 -0.666992 -0.166992 -1.66699 -0.5 -3s-0.5 -2.33301 -0.5 -3c12 0 23.833 2 35.5 6s19.167 9.33301 22.5 16v1
c1.33301 2.66699 3.33301 3.5 6 2.5s3.66699 -2.83301 3 -5.5c-6 -16.667 -28 -26 -66 -28c0 -1.33301 0.166992 -3.16602 0.5 -5.49902s0.5 -3.83301 0.5 -4.5l1 -10c0 -2.66699 -2.16699 -4 -6.5 -4s-6.5 1.66699 -6.5 5c0.666992 2.66699 1 6 1 10
c0 0.666992 0.166992 2.16699 0.5 4.5s0.5 4.16602 0.5 5.49902h-5c-44 2 -66 15.667 -66 41l0.5 2c0.333008 1.33301 0.5 2.33301 0.5 3c4 27.333 32.667 49.333 86 66c0 1.33301 0.333008 3.5 1 6.5s1 5.5 1 7.5c-0.666992 0 -2.5 0.166992 -5.5 0.5
s-5.33301 0.666016 -7 0.999023s-4 0.666016 -7 0.999023s-5.5 0.833008 -7.5 1.5s-4.16699 1.33398 -6.5 2.00098s-4.33301 1.66699 -6 3l-5 4c-1.66699 1.33301 -2.83398 2.83301 -3.50098 4.5s-1 3.5 -1 5.5c2 9.33301 9.16699 16.666 21.5 21.999s25.5 8 39.5 8z" />
    <glyph glyph-name="quotesingle" unicode="'" horiz-adv-x="63" 
d="M40 344c1.33301 3.33301 4 13.001 8 29.001s6.33301 24.667 7 26c0.666992 3.33301 2.33398 4.66602 5.00098 3.99902c2 -1.33301 3.16699 -3.16602 3.5 -5.49902s-0.5 -6.83301 -2.5 -13.5s-3.83301 -12.334 -5.5 -17.001l-5.5 -15.5
c-2 -5.66699 -3.33301 -8.83398 -4 -9.50098c-0.666992 -3.33301 -2.33398 -3.66602 -5.00098 -0.999023c-0.666992 0.666992 -1 1.66699 -1 3z" />
    <glyph glyph-name="parenleft" unicode="(" horiz-adv-x="100" 
d="M7 198c1.33301 -32 7.00293 -57.6689 17.0029 -77.002v-1c0.666992 -2.66699 -0.333008 -4.66699 -3 -6s-4.66699 -0.666016 -6 2.00098c-10 20 -15 47.333 -15 82c0 32.667 6.33301 76 19 130c19.333 70 45.333 142 78 216c15.333 35.333 29.333 59 42 71
c1.33301 1.33301 2.83301 1.83301 4.5 1.5s2.66699 -1.16602 3 -2.49902s0.166016 -3 -0.500977 -5c-2.66699 -2.66699 -5.5 -5.66699 -8.5 -9s-5.5 -6.83301 -7.5 -10.5s-4.33301 -7.66699 -7 -12s-4.83398 -8.33301 -6.50098 -12s-3.83398 -8 -6.50098 -13l-6 -11.5
c-55.333 -110 -87 -211.333 -95 -304c0 -4.66699 -0.333008 -11.167 -1 -19.5s-1 -14.833 -1 -19.5z" />
    <glyph glyph-name="parenright" unicode=")" horiz-adv-x="100" 
d="M109 616c1.33301 -4 2.33301 -8.49902 3 -13.499s1.5 -10.833 2.5 -17.5s1.5 -12 1.5 -16c0 -86.667 -16 -188 -48 -304c-20.667 -70.667 -39.667 -120.334 -57 -149.001c0 -0.666992 -0.333008 -1.66699 -1 -3c-2.66699 -4 -5.33398 -5.33301 -8.00098 -4
c-1.33301 0.666992 -2 1.66699 -2 3s0.5 3 1.5 5l3 6c1 2 2.33301 4 4 6s2.5 3.66699 2.5 5c54.667 109.333 86.334 242.666 95.001 399.999v33c0 16.667 -2 31.667 -6 45c-0.666992 2 -0.333984 3.66699 0.999023 5s2.83301 1.83301 4.5 1.5
s2.83398 -1.16602 3.50098 -2.49902z" />
    <glyph glyph-name="asterisk" unicode="*" horiz-adv-x="117" 
d="M74 392c0.666992 -0.666992 1.49902 -2.00098 2.49902 -4.00098s2.16699 -4.5 3.5 -7.5s2.33301 -4.83301 3 -5.5l31 26c2.66699 2 4 2 4 0c0.666992 -1.33301 0.333984 -2.66602 -0.999023 -3.99902c-2.66699 -2 -12.334 -9.66699 -29.001 -23
c2.66699 0 5.33398 -0.166992 8.00098 -0.5s5.66699 -0.666016 9 -0.999023s6 -1 8 -2s3 -1.83301 3 -2.5c-1.33301 -2.66699 -2.66602 -3.66699 -3.99902 -3h-1c-0.666992 0 -1.33398 0.333008 -2.00098 1h-6.5c-2.33301 0 -5.16602 0.333008 -8.49902 1s-6 1 -8 1
c6 -10.667 9 -18 9 -22l1 -3c0.666992 -2.66699 -0.333008 -4 -3 -4c-2.66699 -0.666992 -4 0.333008 -4 3v2c0 4 -2.33301 11.667 -7 23l-24 -22c-1.33301 -2 -2.66602 -2 -3.99902 0v4l21 19h-22c-2 0 -3 1 -3 3s1 3 3 3h9c1.33301 0 3.83301 -0.166992 7.5 -0.5
s6.83398 -0.5 9.50098 -0.5c-0.666992 1.33301 -1.83398 3.16602 -3.50098 5.49902s-3 4.33301 -4 6s-1.83301 3.5 -2.5 5.5s-0.333984 3.33301 0.999023 4c1.33301 1.33301 2.66602 1 3.99902 -1v-1z" />
    <glyph glyph-name="plus" unicode="+" 
d="M59 245c2 -0.666992 3.16797 -2.16699 3.50098 -4.5s0 -5.16602 -1 -8.49902l-3 -10c-1 -3.33301 -2.16699 -6.83301 -3.5 -10.5s-2.33301 -6.5 -3 -8.5c2.66699 0 6.33398 0.166992 11.001 0.5s8 0.5 10 0.5l13 2c3.33301 0 5.33301 -1.66699 6 -5
c0 -4.66699 -1.33301 -7 -4 -7h-2c-0.666992 0 -5.5 0.333008 -14.5 1s-15.833 1 -20.5 1l-15 -61c-0.666992 -2.66699 -2.16699 -4.33398 -4.5 -5.00098s-4.33301 -0.166992 -6 1.5s-2.5 3.83398 -2.5 6.50098c4 17.333 8.33301 34.666 13 51.999
c0.666992 0.666992 1 1.5 1 2.5s0.333008 1.5 1 1.5c-2 0 -4.83301 -0.333008 -8.5 -1s-6.83398 -1.16699 -9.50098 -1.5s-5.66699 -0.5 -9 -0.5s-5.83301 0.166992 -7.5 0.5s-2.83398 1.16602 -3.50098 2.49902c-0.666992 3.33301 0.666016 5.33301 3.99902 6l35 2
c0.666992 2 1.5 4.66699 2.5 8s1.66699 6 2 8s1 4.33301 2 7s1.66699 4.83398 2 6.50098s0.833008 3.5 1.5 5.5s1.33398 3.33301 2.00098 4s1.5 1.66699 2.5 3s1.83301 1.83301 2.5 1.5s1.66699 -0.5 3 -0.5z" />
    <glyph glyph-name="comma" unicode="," horiz-adv-x="93" 
d="M29 148c2.66699 0 4.00098 -2 4.00098 -6c0 -6.66699 -3 -14.667 -9 -24s-12 -15.666 -18 -18.999c-2 -1.33301 -3.66699 -1.16602 -5 0.500977s-1.33301 3.16699 0 4.5c11.333 11.333 18.666 24.666 21.999 39.999c1.33301 3.33301 3.33301 4.66602 6 3.99902z" />
    <glyph glyph-name="hyphen" unicode="-" horiz-adv-x="126" 
d="M84 188c2 -0.666992 2.99902 -2.33594 2.99902 -5.00293s-1.66699 -4 -5 -4h-1c-3.33301 1.33301 -7.33301 2 -12 2c-4 0.666992 -9.16699 0.833984 -15.5 0.500977s-12 -0.666016 -17 -0.999023s-10.667 -0.666016 -17 -0.999023s-11.166 -0.5 -14.499 -0.5
s-5 1.33301 -5 4c-0 3.33301 1.33301 5 4 5h1l39 1h27c1.33301 0 3 -0.166992 5 -0.5s3.33301 -0.5 4 -0.5h4z" />
    <glyph glyph-name="period" unicode="." horiz-adv-x="60" 
d="M0 155c-1.33301 4.66699 1.33301 7.66699 8 9c7.33301 0.666992 11 -1.33301 11 -6c-1.33301 -4 -4 -6 -8 -6c0 -0.666992 -1.66699 -1 -5 -1h-2c-2 0 -3.33301 1.33301 -4 4z" />
    <glyph glyph-name="slash" unicode="/" horiz-adv-x="163" 
d="M15 106c-0.666992 -2.66699 -1.49707 -5.49805 -2.49707 -8.49805s-1.66699 -5.33301 -2 -7s-0.833008 -3.33398 -1.5 -5.00098s-1.5 -2.83398 -2.5 -3.50098s-2.16699 -0.833984 -3.5 -0.500977s-2.33301 1 -3 2s-0.833984 2.33301 -0.500977 4
s0.833008 3.33398 1.5 5.00098l3 7.5c1.33301 3.33301 2.33301 6 3 8c37.333 106.667 87.333 229.667 150 369l8.5 19.5c3 7 5.33301 12.667 7 17s3.66699 8.83301 6 13.5l5.5 11c1.33301 2.66699 2.83301 5.16699 4.5 7.5s3 3.83301 4 4.5s1.83301 0.666992 2.5 0
c3.33301 -1.33301 4.33301 -3.33301 3 -6c-9.33301 -18.667 -20.333 -42 -33 -70c-66 -142 -113.667 -257 -143 -345c-0.666992 -2 -1.33398 -4.16699 -2.00098 -6.5s-1.16699 -4.33301 -1.5 -6s-0.833008 -3.5 -1.5 -5.5s-1.33398 -3.66699 -2.00098 -5z" />
    <glyph glyph-name="zero" unicode="0" horiz-adv-x="222" 
d="M164 543h-7.99707c-14.667 -4.66699 -25.334 -10.334 -32.001 -17.001c-20.667 -18 -41 -47.667 -61 -89c-23.333 -47.333 -39.333 -96.666 -48 -147.999c-2.66699 -21.333 -4.16699 -42.333 -4.5 -63s4.5 -38.667 14.5 -54s24.667 -23.333 44 -24
c26.667 -1.33301 51.667 12 75 40c27.333 34.667 47 87 59 157c4 26 6 50.667 6 74c0 73.333 -13.667 114.333 -41 123c-0.666992 0 -1.33398 0.166992 -2.00098 0.5s-1.33398 0.5 -2.00098 0.5zM156.003 552l6.00195 -0.00292969h3c11.333 0 22 -7.66699 32 -23
c15.333 -25.333 23 -62 23 -110c0 -55.333 -9 -107.666 -27 -156.999c-18 -53.333 -43.333 -90 -76 -110c-12.667 -7.33301 -28 -11 -46 -11s-32.667 6 -44 18c-14.667 14.667 -23.167 36.334 -25.5 65.001s-1.33301 54.834 3 78.501s10.5 47.5 18.5 71.5
c11.333 32 25.666 63.167 42.999 93.5s34.666 52.5 51.999 66.5c14 12 26.667 18 38 18z" />
    <glyph glyph-name="one" unicode="1" horiz-adv-x="96" 
d="M78 531c0 20.667 -2.00195 31 -6.00195 31c-6 0 -14.667 -8 -26 -24c-2 -2 -5.5 -6.5 -10.5 -13.5l-13.5 -18.5c-4 -5.33301 -6.33301 -8.83301 -7 -10.5s-1.83398 -2.33398 -3.50098 -2.00098s-3 1.16602 -4 2.49902s-0.833008 3 0.5 5c13.333 20 30 40 50 60
c10.667 8 18.334 8.66699 23.001 2c3.33301 -5.33301 5 -16.666 5 -33.999c0 -10 -0.333008 -20.167 -1 -30.5s-1.66699 -21 -3 -32l-3.5 -28c-1 -7.66699 -2.66699 -18.167 -5 -31.5s-4.16602 -23 -5.49902 -29c-4.66699 -27.333 -10.334 -58.333 -17.001 -93l-21 -108
c-7.33301 -37.333 -12.666 -63 -15.999 -77c-1.33301 -4.66699 -4.16602 -6.5 -8.49902 -5.5s-6.16602 3.83301 -5.49902 8.5l19 86c27.333 124.667 45.666 223 54.999 295c2 16.667 3.33301 32.334 4 47.001z" />
    <glyph glyph-name="two" unicode="2" horiz-adv-x="301" 
d="M41 95c7.33301 3.33301 14.499 7.33398 21.499 12.001s14 10.834 21 18.501s12.333 13.667 16 18l16.5 20.5c-23.333 4.66699 -44.833 2.5 -64.5 -6.5s-33.167 -22.167 -40.5 -39.5c-2.66699 -6.66699 -3.16699 -12.834 -1.5 -18.501s5.83398 -8.5 12.501 -8.5
c4.66699 -0.666992 11 0.666016 19 3.99902zM132.999 558.001c-2.66699 -2 -4.99805 -1.99707 -6.99805 0.00292969s-3 4.5 -3 7.5s1.33301 4.83301 4 5.5c23.333 14 46 18 68 12c20 -5.33301 34.667 -17.333 44 -36s13.666 -40.334 12.999 -65.001
s-3.33398 -48.167 -8.00098 -70.5s-10.667 -43.5 -18 -63.5c-10 -30 -33.333 -78 -70 -144l-12 -20c-2 -4 -5.66699 -9.33301 -11 -16c38 -10.667 67.667 -29.667 89 -57c10.667 -15.333 16 -28.333 16 -39v-3c0.666992 -3.33301 -0.833008 -5 -4.5 -5s-5.5 1.33301 -5.5 4
v1c0.666992 0 1 0.666992 1 2c0 10 -4.66699 21.667 -14 35c-18.667 26.667 -47.667 44.667 -87 54c-29.333 -38.667 -57 -63.667 -83 -75c-8.66699 -4 -16.667 -5.66699 -24 -5c-9.33301 0 -15.666 4.5 -18.999 13.5s-3 17.833 1 26.5c8.66699 20 23.667 34.833 45 44.5
s45.666 12.167 72.999 7.5c40 56.667 71.333 117 94 181c15.333 45.333 23 84.666 23 117.999c0 28.667 -5.33301 52.5 -16 71.5s-27.667 27.833 -51 26.5c-13.333 -2.66699 -26 -6.33398 -38 -11.001z" />
    <glyph glyph-name="three" unicode="3" horiz-adv-x="240" 
d="M143 598c17.333 0 30.498 -5.99707 39.498 -17.9971s13.5 -28 13.5 -48c0 -28 -13.333 -58.333 -40 -91c-3.33301 -4 -8.5 -9 -15.5 -15s-11.167 -10 -12.5 -12c13.333 -10.667 24 -25.334 32 -44.001l6 -13c9.33301 -22 16 -50.333 20 -85
c1.33301 -6.66699 2 -11.334 2 -14.001v-14c0 -45.333 -10.5 -81.833 -31.5 -109.5s-51.167 -45.167 -90.5 -52.5l-15 -1c-3.33301 -0.666992 -8.33301 -1 -15 -1h-7c-2 0.666992 -4.66699 1 -8 1h-14c-4.66699 0 -7 2.66699 -7 8c0 4 2.66699 6 8 6l1 1h13l7 -1h7h4h3.5
h3.5c1.33301 0 2.33301 0.333008 3 1l14 1c28 4 51.667 15.667 71 35c4 4 7 7.33301 9 10l7 11c16.667 25.333 25 60.666 25 105.999v14c0 42 -11.667 81.667 -35 119c-5.33301 8 -11.333 15 -18 21c-1.33301 2 1.66699 7 9 15c6.66699 6 12.334 12.667 17.001 20l8 11
c16.667 21.333 25 43.666 25 66.999v6c0 26 -9.33301 42 -28 48c-1.33301 0 -4 0.333008 -8 1s-7 1.83398 -9 3.50098s-2.66699 3.83398 -2 6.50098c0.666992 5.33301 3.33398 7.66602 8.00098 6.99902z" />
    <glyph glyph-name="four" unicode="4" horiz-adv-x="271" 
d="M265 481c0.666992 4 0.666016 7.33398 -0.000976562 10.001c0 3.33301 -3.33301 1.66602 -10 -5.00098c-15.333 -16.667 -31.666 -48.334 -48.999 -95.001c30 24.667 49 51.334 57 80.001zM100.999 344.001l1.99805 -0.00390625h3c31.333 4 61 16.333 89 37
c16.667 50.667 35 87.334 55 110.001c7.33301 7.33301 13.333 10 18 8c3.33301 -2 4.33301 -4.33301 3 -7c0 -2.66699 -1 -10.334 -3 -23.001c-9.33301 -34 -32.333 -65 -69 -93l-0.5 -0.5c-0.333008 -0.333008 -0.5 -0.833008 -0.5 -1.5c-22 -66 -37 -148.667 -45 -248
c-1.33301 -12 -2 -21.667 -2 -29v-11c0 -4.66699 -2.66699 -7 -8 -7c-4.66699 0 -7 2.66699 -7 8c10 110.667 27.333 204.334 52 281.001h-1c-24.667 -17.333 -50 -28.666 -76 -33.999c-18 -4 -32 -2.66699 -42 4c-23.333 14.667 -24.666 58.334 -3.99902 131.001
c5.33301 18.667 15.333 45.667 30 81c0.666992 2.66699 2.5 4.16699 5.5 4.5s5.5 -0.666992 7.5 -3s2.33301 -4.83301 1 -7.5c-1.33301 -3.33301 -3.33301 -9 -6 -17s-5 -14.667 -7 -20c-1.33301 -4.66699 -3.66602 -12.167 -6.99902 -22.5l-8 -25
c-2 -6.33301 -4.33301 -14.5 -7 -24.5s-4.66699 -19 -6 -27c-3.33301 -14.667 -3.5 -28.667 -0.5 -42s11.167 -20.666 24.5 -21.999h9z" />
    <glyph glyph-name="five" unicode="5" horiz-adv-x="247" 
d="M79 541c9.33301 -4 24.6641 -6.00195 45.9971 -6.00195c49.333 2 91 11.333 125 28l11 6c0.666992 0 1.66699 0.5 3 1.5s2.5 1.83301 3.5 2.5s2.33301 1.33398 4 2.00098s3 1 4 1s2.16699 -0.166992 3.5 -0.5s2.33301 -1.5 3 -3.5c3.33301 -4 1 -8.5 -7 -13.5
s-18.667 -9.66699 -32 -14s-25.5 -8 -36.5 -11s-20.167 -4.83301 -27.5 -5.5c-18.667 -4 -36.334 -6 -53.001 -6c-19.333 0 -34.666 2.33301 -45.999 7c0 -1.33301 -0.166992 -2.83301 -0.5 -4.5s-0.5 -3.33398 -0.5 -5.00098s-0.166992 -3.5 -0.5 -5.5
s-0.5 -3.66699 -0.5 -5c-5.33301 -32 -13.333 -64 -24 -96c8.66699 4 21.334 6 38.001 6c42 0 68.333 -21 79 -63c1.33301 -10 2 -15.333 2 -16v-8c-3.33301 -35.333 -12.666 -66.333 -27.999 -93l-7 -13c-5.33301 -10 -10.666 -18.667 -15.999 -26l-9 -12
c-26 -32 -46 -54.333 -60 -67c-5.33301 -5.33301 -20.333 -18.333 -45 -39c-2.66699 -1.33301 -5 -1 -7 1s-1.66699 4 1 6c48 44.667 81.667 80 101 106l9 12c11.333 13.333 23 34.333 35 63c7.33301 18.667 12 39.334 14 62.001v7c0 21.333 -6.16699 38.333 -18.5 51
s-28.833 19 -49.5 19h-15c-5.33301 0 -14.666 -1.66699 -27.999 -5h-1c-2 0 -3.33301 1 -4 3v2c13.333 40.667 21.666 82.334 24.999 125.001c-6 4 -9.66699 10.167 -11 18.5s0.666992 15.833 6 22.5c2.66699 2.66699 5 3.66699 7 3c4.66699 0 7 -12.333 7 -37z
M69.998 547.998c0 5.33301 -0.333008 9.66797 -1 13.001l-0.5 -1c-0.333008 -0.666992 -0.5 -1.33398 -0.5 -2.00098z" />
    <glyph glyph-name="six" unicode="6" horiz-adv-x="246" 
d="M183 194c2.66699 23.333 0.333008 38.668 -7 46.001c-8 12 -16.333 18 -25 18c-10.667 0 -20.667 -6.66699 -30 -20c-17.333 -20 -31 -51 -41 -93c-3.33301 -14.667 -5.33301 -29.334 -6 -44.001c19.333 -3.33301 40 2.66699 62 18c26 20 41.667 45 47 75zM62.999 54.002
c0 2.66699 -0.503906 8.50098 -1.50391 17.501s-1.5 17.167 -1.5 24.5c-17.333 6 -31 18 -41 36l-6 12c-16 35.333 -17.667 83.333 -5 144c16.667 83.333 55 161.666 115 234.999c18.667 20.667 35.334 36.667 50.001 48c3.33301 4 6.33301 3.33301 9 -2
c2 -2.66699 1.66699 -5 -1 -7l-10 -8c-4 -2 -12 -9.33301 -24 -22c-26 -25.333 -49.667 -56.333 -71 -93c-29.333 -51.333 -49.333 -102.666 -60 -153.999c-12 -56.667 -10.333 -102.667 5 -138c10 -20 23.333 -34.333 40 -43c6 59.333 23 106 51 140c12 16 24.667 24 38 24
c6 0 11 -1.16699 15 -3.5s8.33301 -6.66602 13 -12.999s7.66699 -9.83301 9 -10.5c12.667 -28.667 10.834 -56.334 -5.49902 -83.001s-37.166 -46.334 -62.499 -59.001c-16.667 -6.66699 -32 -9 -46 -7c0 -11.333 0.666992 -20.666 2 -27.999
c0 -1.33301 0.166992 -2.83301 0.5 -4.5s0.5 -2.83398 0.5 -3.50098l1 -2v-1c0.666992 -5.33301 -1.66602 -8 -6.99902 -8c-4 0 -6.33301 2 -7 6v3z" />
    <glyph glyph-name="seven" unicode="7" horiz-adv-x="275" 
d="M263 551c17.333 6 29.333 13.667 36 23v2h1c-3.33301 0 -10 -3.33301 -20 -10c-4 -3.33301 -9.66699 -8.33301 -17 -15zM302 584c1.33301 -2 3.66602 -2.66602 6.99902 -1.99902c0.666992 -2.66699 0 -5.66699 -2 -9v-1c-7.33301 -14 -24.666 -24 -51.999 -30
c-91.333 -90.667 -167.333 -225 -228 -403l-12 -35c-1.33301 -2.66699 -3.33301 -4.16699 -6 -4.5s-5 0.5 -7 2.5s-2.66699 4.33301 -2 7c49.333 146.667 114 272.334 194 377.001c14.667 19.333 30.334 37.666 47.001 54.999c-0.666992 0 -1.5 -0.166992 -2.5 -0.5
l-1.5 -0.5c-48.667 -5.33301 -102.667 -1.33301 -162 12c-4.66699 0.666992 -10.834 2.16699 -18.501 4.5s-13.5 3.83301 -17.5 4.5c-2.66699 0 -4.33398 1.16699 -5.00098 3.5s-0.166992 4.5 1.5 6.5s3.83398 3 6.50098 3h1c4.66699 -2 16.334 -5.66699 35.001 -11
c64.667 -16.667 121.667 -21.334 171 -14.001c21.333 19.333 37.666 31 48.999 35h4z" />
    <glyph glyph-name="eight" unicode="8" horiz-adv-x="217" 
d="M147 591c-34 0 -60.167 -12.332 -78.5 -36.999s-25.833 -55.667 -22.5 -93c2.66699 -34.667 13 -67 31 -97l7 -13l42 -70c0.666992 1.33301 1.33398 2.33301 2.00098 3c31.333 46.667 55.666 89 72.999 127c15.333 34.667 24.666 65.667 27.999 93
c2.66699 19.333 2 36.666 -2 51.999c-6.66699 16.667 -21.667 28 -45 34c-3.33301 0.666992 -5.66602 1 -6.99902 1l-7 1h-7c-6 0 -10.667 -0.333008 -14 -1zM95 241.001c7.33301 8.66699 14.6689 18.334 22.002 29.001l-45 74c-38 67.333 -49 127.333 -33 180
c7.33301 22 20.333 40.167 39 54.5s41 21.5 67 21.5h19c1.33301 -0.666992 2.66602 -1 3.99902 -1c20 -1.33301 36 -7 48 -17c3.33301 -3.33301 9.33301 -11 18 -23c6 -16 7.33301 -34.333 4 -55c-6.66699 -47.333 -29 -103.333 -67 -168
c-17.333 -29.333 -30.666 -50 -39.999 -62c17.333 -32 27 -58.333 29 -79c2 -14 -0.833008 -26 -8.5 -36s-16.834 -17.167 -27.501 -21.5s-22.667 -7.16602 -36 -8.49902c-58.667 -6.66699 -88 10 -88 50c0 23.333 11.333 49 34 77c7.33301 9.33301 16.333 19 27 29
s17.334 13 20.001 9c1.33301 -2 1.33301 -3.83301 0 -5.5s-3.66602 -3.5 -6.99902 -5.5s-5.33301 -3.33301 -6 -4c-37.333 -30.667 -58 -64 -62 -100c0 -18.667 7.5 -31.334 22.5 -38.001s34.167 -8 57.5 -4c11.333 0 22 2 32 6s18 10.5 24 19.5s8.33301 19.5 7 31.5
c-2 16.667 -11 39.334 -27 68.001c-10.667 -14.667 -17.334 -23.334 -20.001 -26.001c-0.666992 -2 -1.83398 -2.83301 -3.50098 -2.5s-2.83398 1.16602 -3.50098 2.49902s-0.666992 3 0 5z" />
    <glyph glyph-name="nine" unicode="9" horiz-adv-x="228" 
d="M268 569l2.00293 -1c0.666992 -0.666992 0.666992 -1.66699 0 -3l-13 -25c-22 -40.667 -44.333 -103.334 -67 -188.001c-10.667 -39.333 -19.667 -76.333 -27 -111l-11 -57c-2.66699 -12 -6 -30.667 -10 -56c-0.666992 -2.66699 -2.5 -3.66699 -5.5 -3
s-4.5 2.33398 -4.5 5.00098c2 7.33301 4.16699 18 6.5 32s3.5 22 3.5 24c17.333 86.667 36.333 161 57 223l9 27l10 27c7.33301 21.333 18.666 47.666 33.999 78.999l8 16c-66 -40 -123.667 -68.667 -173 -86c-18.667 -6 -36 -9.66699 -52 -11
c-12.667 -1.33301 -22.334 1.83398 -29.001 9.50098s-8 17.834 -4 30.501c12 36 36.333 61.667 73 77c20.667 8.66699 42.5 12.167 65.5 10.5s41.833 -8.16699 56.5 -19.5c4.66699 -2.66699 9.16699 -6.33398 13.5 -11.001s4.83301 -9 1.5 -13c-4 -2 -7 -2.83301 -9 -2.5
s-4.83301 2.33301 -8.5 6s-5.83398 5.5 -6.50098 5.5c-13.333 10 -30 15.5 -50 16.5s-38.667 -2.16699 -56 -9.5c-33.333 -13.333 -55 -35.333 -65 -66c-5.33301 -14.667 1 -22 19 -22c10 0 26.333 3.33301 49 10c70.667 23.333 131.667 52 183 86z" />
    <glyph glyph-name="colon" unicode=":" horiz-adv-x="71" 
d="M9 214c-2 5.33301 0.666992 8.66699 8 10c6 0.666992 9.66699 -1.33301 11 -6c-0.666992 -2.66699 -4 -4 -10 -4c-0.666992 -1.33301 -1.66699 -2.33301 -3 -3h-2c-2 0 -3.33301 1 -4 3zM0 138.001c4.66699 9.33301 10.666 10.332 17.999 2.99902
c2.66699 -2.66699 2.83398 -5.16699 0.500977 -7.5s-4.83301 -2.16602 -7.5 0.500977l-2 2c-0.666992 -2.66699 -2 -4 -4 -4h-2c-2.66699 1.33301 -3.66699 3.33301 -3 6z" />
    <glyph glyph-name="semicolon" unicode=";" horiz-adv-x="91" 
d="M18 147c0 2 1.00098 3.16602 3.00098 3.49902s3.66699 0 5 -1s1.66602 -2.83301 0.999023 -5.5l-0.5 -2c-0.333008 -1.33301 -0.833008 -3.16602 -1.5 -5.49902s-1.5 -5 -2.5 -8s-2.16699 -5.83301 -3.5 -8.5s-3 -5.5 -5 -8.5s-4 -5.83301 -6 -8.5
c-1.33301 -0.666992 -2.33301 -1 -3 -1c-2 0 -3.5 1 -4.5 3s-0.833008 3.66699 0.5 5c2 2 3.66699 4 5 6s2.5 4.16699 3.5 6.5l3 7c1 2.33301 1.83301 4.5 2.5 6.5s1.16699 3.83301 1.5 5.5s0.5 3.16699 0.5 4.5zM30.001 218.999c-4 4 -2.5 7.5 4.5 10.5
s10.5 0.833008 10.5 -6.5v-3c0 -3.33301 -1.66699 -5 -5 -5c-2.66699 0 -4 1.33301 -4 4c-1.33301 -1.33301 -3.33301 -1.33301 -6 0z" />
    <glyph glyph-name="less" unicode="&#x3c;" horiz-adv-x="74" 
d="M10 188c6 -6 9.99707 -12.666 11.9971 -19.999c0 -0.666992 0.166992 -1.83398 0.5 -3.50098s0.5 -2.83398 0.5 -3.50098c0.666992 -1.33301 1 -3.66602 1 -6.99902c0 -12.667 -2.33301 -18.334 -7 -17.001c-2 0.666992 -3.16699 1.83398 -3.5 3.50098
s-0.166016 4.16699 0.500977 7.5s1 5.33301 1 6v7c-4 11.333 -8.33301 19.666 -13 24.999c-1.33301 0.666992 -2 1.83398 -2 3.50098s0.666992 2.5 2 2.5l11 7c8 6 14.333 12.333 19 19c0.666992 0.666992 1.5 2 2.5 4l2.5 5c0.666992 1.33301 1.5 2.5 2.5 3.5
s2.5 1.5 4.5 1.5c4 -1.33301 3.33301 -6 -2 -14s-9.66602 -13.333 -12.999 -16c-5.33301 -5.33301 -11.666 -10 -18.999 -14z" />
    <glyph glyph-name="equal" unicode="=" 
d="M4 165c2.66699 0 8.33301 0.166992 17 0.5s15.334 0.5 20.001 0.5h13h12c2 -0.666992 4.66699 -1 8 -1h3c2 0 4 -1.33301 6 -4c0 -3.33301 -1.66699 -5 -5 -5h-2c-7.33301 2 -19 3 -35 3c-2 0 -6.66699 -0.5 -14 -1.5s-13.5 -1.5 -18.5 -1.5s-7.83301 1 -8.5 3
c-0.666992 3.33301 0.666016 5.33301 3.99902 6zM46.999 198c-11.333 0 -21.002 -0.999023 -29.002 -2.99902c-2 0 -3.33301 0.333008 -4 1s-1 1.66699 -1 3c0 3.33301 1.66699 5 5 5c2 0.666992 5 1 9 1c2 0 5.33301 0.166992 10 0.5s8.33398 0.5 11.001 0.5
s6.33398 -0.166992 11.001 -0.5s7.66699 -0.5 9 -0.5l10 -1c2 0 3.16699 -0.833008 3.5 -2.5s0 -3.33398 -1 -5.00098s-2.5 -2.16699 -4.5 -1.5c-1.33301 0 -4.33301 0.666992 -9 2c-4 0.666992 -10.667 1 -20 1z" />
    <glyph glyph-name="greater" unicode="&#x3e;" horiz-adv-x="88" 
d="M40 197c0 -2 1.33398 -2.99902 4.00098 -2.99902c1.33301 -0.666992 2.16602 -2 2.49902 -4s0.166016 -3.33301 -0.500977 -4c-14 -10.667 -25.333 -24.667 -34 -42c0 -0.666992 -0.333008 -1.66699 -1 -3c-2.66699 -6 -5.33398 -8.33301 -8.00098 -7
c-6 3.33301 -3.33301 12 8 26s20.333 23.333 27 28c-1.33301 0 -2.66602 0.833008 -3.99902 2.5s-2.66602 3.66699 -3.99902 6s-2.66602 4.83301 -3.99902 7.5s-2.33301 5.5 -3 8.5s-1.16699 5.83301 -1.5 8.5s-0.333008 4.83398 0 6.50098s1.16602 2.83398 2.49902 3.50098
c2.66699 0 4.5 -1.33301 5.5 -4s2 -6.33398 3 -11.001s1.5 -7.33398 1.5 -8.00098c2 -4.66699 3.66699 -7.66699 5 -9c0 -0.666992 0.333008 -1.33398 1 -2.00098z" />
    <glyph glyph-name="question" unicode="?" horiz-adv-x="188" 
d="M244 523l-0.000976562 -4.50293v-4.5c-0.666992 -4.66699 -1.66699 -9 -3 -13s-3.16602 -7.83301 -5.49902 -11.5s-4.33301 -7.16699 -6 -10.5s-4 -6.83301 -7 -10.5s-5.33301 -6.66699 -7 -9s-4.33398 -5.33301 -8.00098 -9l-8 -8
c-1.66699 -1.66699 -4.5 -4.33398 -8.5 -8.00098s-6.66699 -6.16699 -8 -7.5s-7.83301 -7.5 -19.5 -18.5l-21 -20l-18.5 -19c-10 -10.333 -16.5 -17.666 -19.5 -21.999s-8.5 -11.333 -16.5 -21s-13.5 -17.834 -16.5 -24.501s-7 -15 -12 -25s-8.83301 -19.833 -11.5 -29.5
s-5 -19.5 -7 -29.5v-3.5c0 -1 -0.166992 -2 -0.5 -3s-0.5 -1.83301 -0.5 -2.5l-1 -8c0 -3.33301 -1.66699 -4.66602 -5 -3.99902c-3.33301 0 -4.66602 1.66699 -3.99902 5c0.666992 1.33301 1 3.66602 1 6.99902c0 4.66699 1.66699 12 5 22c4.66699 24 14 48.333 28 73
c17.333 30 53.666 74 108.999 132c16.667 16.667 30.334 32.667 41.001 48c6.66699 10.667 11 19.334 13 26.001c0 0.666992 0.166992 1.83398 0.5 3.50098s0.5 2.83398 0.5 3.50098c0.666992 1.33301 1 3.33301 1 6v3c-0.666992 0.666992 -1.33398 2.66699 -2.00098 6l-1 3
v1c-7.33301 20 -25.833 34.333 -55.5 43s-59.667 9.83398 -90 3.50098s-50.166 -18.833 -59.499 -37.5c-2 -4 -3 -6.66699 -3 -8v-3v-8c0 -3.33301 -1.66699 -5.5 -5 -6.5s-6.5 -0.666992 -9.5 1s-4.16699 4.16699 -3.5 7.5c2 14 5.33301 24.333 10 31
c14.667 20 39 33.333 73 40s66.667 4.5 98 -6.5s51 -28.167 59 -51.5l1 -2v0v-1c2 -7.33301 3 -12.333 3 -15zM10.999 115.997c-4 2.66699 -2.33301 7.33301 5 14s13.333 10.667 18 12h5c4 0 7.5 -2 10.5 -6s2.83301 -7.33301 -0.5 -10
c-2.66699 -2.66699 -5.66699 -2.66699 -9 0l-1 2l-1 1c0 0.666992 -0.333008 1 -1 1h-1c-1.33301 0 -2 -0.333008 -2 -1c-2 0 -4.5 -1.5 -7.5 -4.5s-6 -5.66699 -9 -8s-5.16699 -2.5 -6.5 -0.5z" />
    <glyph glyph-name="NameMe.262" unicode="@" horiz-adv-x="297" 
d="M97 201c-10.667 0 -21 -9 -31 -27h1c4 2 10 5.5 18 10.5s13.667 8.16699 17 9.5l-1 1v1l-1 2c0 2 -1 3 -3 3zM144 186c0 -6.66699 2.00391 -12.1689 6.00391 -16.502s9.33301 -6.5 16 -6.5c14 0 27.333 11.333 40 34c22 43.333 24.667 78 8 104
c-9.33301 14.667 -25.833 22.5 -49.5 23.5s-43.834 -3.16699 -60.501 -12.5c-20.667 -9.33301 -38.834 -23 -54.501 -41s-27.5 -38.333 -35.5 -61c-6 -16.667 -8.5 -34.834 -7.5 -54.501s5.5 -35.5 13.5 -47.5s19.833 -21.167 35.5 -27.5s32.167 -8.83301 49.5 -7.5
c30.667 2.66699 57.667 13.667 81 33s41.666 42.333 54.999 69c0.666992 1.33301 1.83398 2 3.50098 2s3 -0.666992 4 -2s1.16699 -3 0.5 -5c-19.333 -38.667 -48 -68 -86 -88c-19.333 -10 -39.333 -15.833 -60 -17.5s-41.667 3.16602 -63 14.499
c-19.333 11.333 -31.666 29.333 -36.999 54s-3.66602 50.667 5.00098 78c9.33301 30 25 55.5 47 76.5s48.333 34.833 79 41.5c25.333 6 46.666 4.5 63.999 -4.5s28.333 -24.167 33 -45.5c3.33301 -16 2.83301 -32.667 -1.5 -50s-10.5 -31.666 -18.5 -42.999
c-14 -20 -28.667 -30 -44 -30c-20.667 0 -31 13 -31 39l2 15c-2.66699 -1.33301 -5.33398 -3.33301 -8.00098 -6l-8 -8c-2.66699 -2.66699 -5 -4.66699 -7 -6c-11.333 -9.33301 -25 -18.666 -41 -27.999c-6.66699 -2.66699 -11.334 -4.33398 -14.001 -5.00098
c-9.33301 0 -14 3 -14 9c0 0.666992 0.166992 1.33398 0.5 2.00098s0.5 1.33398 0.5 2.00098l0.5 2c0.333008 1.33301 0.833008 2.33301 1.5 3c2.66699 8.66699 7.5 16.667 14.5 24s14.5 12.333 22.5 15c12.667 5.33301 22 2 28 -10v-1l10 8
c3.33301 2.66699 6.66602 5.83398 9.99902 9.50098s6.33301 6.5 9 8.5c2 2 4 2.33301 6 1s2.66699 -3 2 -5c-4.66699 -12 -7 -22.333 -7 -31v-8z" />
    <glyph glyph-name="A" unicode="A" horiz-adv-x="452" 
d="M363 661l-2 -4c0.666992 0 1 -0.333008 1 -1l1 2v3zM308 546c18 45.333 30.667 78.6699 38 100.003c-1.33301 1.33301 -2 2.33301 -2 3c-4 12.667 -9.83301 21.667 -17.5 27s-16.167 7.16602 -25.5 5.49902s-18.833 -4.66699 -28.5 -9s-19.334 -10.333 -29.001 -18
s-18 -14.667 -25 -21s-13.167 -12.5 -18.5 -18.5c-65.333 -70.667 -114.333 -158.334 -147 -263.001c-23.333 -76.667 -35 -151 -35 -223c0 -32 2.66699 -56.333 8 -73c2 -6.66699 4.83301 -11 8.5 -13s7.66699 -1.83301 12 0.5s8.33301 4.66602 12 6.99902s8 6.5 13 12.5
l10 12c1.66699 2 3.83398 5 6.50098 9c16 22 33.667 51 53 87c51.333 97.333 107 222.333 167 375zM452 185.004c2 4 4.66602 4.33594 7.99902 1.00293l1 -4c-16.667 -38.667 -36.667 -74.667 -60 -108c-8.66699 -12 -16 -21.667 -22 -29s-14.5 -15.166 -25.5 -23.499
s-22.5 -13.833 -34.5 -16.5c-6 -1.33301 -11.333 -0.333008 -16 3s-8.16699 9 -10.5 17s-4.16602 16.167 -5.49902 24.5s-2 18.5 -2 30.5s0.166992 21.5 0.5 28.5s0.833008 15.167 1.5 24.5c1.33301 32.667 5 73.667 11 123c14.667 128.667 35.334 259 62.001 391
c0 -0.666992 -1.33301 -1.66699 -4 -3l-0.5 -1.5c-0.333008 -1 -0.833008 -1.83301 -1.5 -2.5l-37 -96c-63.333 -160.667 -118.666 -286 -165.999 -376c-18.667 -36.667 -36 -66.334 -52 -89.001c-12 -17.333 -23.667 -30.666 -35 -39.999
c-19.333 -13.333 -33.666 -13.333 -42.999 0c-14 19.333 -21 58.666 -21 117.999c0 101.333 23 202 69 302c41.333 90 92.333 159.667 153 209c0.666992 0.666992 2 1.66699 4 3c6.66699 5.33301 12 9.33301 16 12s10 6.16699 18 10.5s15 7.33301 21 9
s13.167 2.66699 21.5 3s16.166 -1.16699 23.499 -4.5c13.333 -4.66699 23.333 -13.667 30 -27c12.667 34 20.334 56 23.001 66h-1c1.33301 2 3 3.16699 5 3.5s3.83301 -0.166992 5.5 -1.5s2.16699 -3.33301 1.5 -6c-38.667 -178 -67 -339 -85 -483
c-0.666992 -4 -2 -15.833 -4 -35.5s-3.16699 -31.834 -3.5 -36.501s-1.33301 -16.834 -3 -36.501s-2.16699 -32 -1.5 -37s1 -17.5 1 -37.5v-4c0 -3.33301 0.166992 -6 0.5 -8s0.666016 -5.16699 0.999023 -9.5s0.666016 -7.66602 0.999023 -9.99902s1 -5.5 2 -9.5
s2 -6.66699 3 -8s2.33301 -3.33301 4 -6s3.5 -3.83398 5.5 -3.50098s4.33301 0.166016 7 -0.500977c8 2 15.833 5.33301 23.5 10s15 10.667 22 18s12.167 13.333 15.5 18s8.66602 11.667 15.999 21c23.333 34 42.333 69.667 57 107z" />
    <glyph glyph-name="B" unicode="B" horiz-adv-x="454" 
d="M238 -72c38.667 45.333 63.668 102.999 75.001 172.999c-50.667 -50.667 -86.334 -105.667 -107.001 -165c-4.66699 -13.333 -7 -23.666 -7 -30.999c0 -4.66699 1.33301 -7 4 -7c3.33301 0 7.33301 2 12 6c7.33301 6.66699 15 14.667 23 24zM19.001 49.999
c3.33301 30 8.33203 85 14.999 165s12.667 141.333 18 184l-9 -48c-14 -76 -24.333 -157 -31 -243c-4 -48.667 -6 -89.334 -6 -122.001c0 -1.33301 0.166992 -3.66602 0.5 -6.99902s0.5 -6 0.5 -8c0.666992 -0.666992 1 -1.66699 1 -3
c0.666992 4.66699 4.33398 32 11.001 82zM338 131.999c40 31.333 79.9971 49.9951 119.997 55.9951c3.33301 0 5.33301 -1.5 6 -4.5s-0.666016 -4.83301 -3.99902 -5.5c-38.667 -3.33301 -78.334 -21.333 -119.001 -54c-0.666992 0 -1.33398 -0.333008 -2.00098 -1l-2 -2
l-4 -17c-8.66699 -42.667 -22.667 -82.5 -42 -119.5s-42.666 -66.5 -69.999 -88.5c-6.66699 -4.66699 -12.334 -7.33398 -17.001 -8.00098c-8.66699 0 -13 5.33301 -13 16c0.666992 16 7.66699 37.667 21 65c28 56 62.667 103.333 104 142
c7.33301 40.667 9.83301 85.667 7.5 135s-9.83301 89.666 -22.5 120.999c-8 16.667 -16.833 30 -26.5 40s-23.167 15 -40.5 15c-10 0 -20.333 -1.66699 -31 -5c-0.666992 -0.666992 -1.66699 -0.5 -3 0.5s-1.66602 2.16699 -0.999023 3.5
c17.333 36.667 31.333 74.334 42 113.001c16.667 64.667 17.667 113 3 145c-19.333 32.667 -53.666 19 -102.999 -41c-0.666992 -1.33301 -1.33398 -2.33301 -2.00098 -3c-32 -44 -56.667 -105 -74 -183c-7.33301 -67.333 -12.666 -120.666 -15.999 -159.999l-12 -122
c-8.66699 -95.333 -15 -156 -19 -182c-2 -15.333 -4.66699 -25.666 -8 -30.999c0 -0.666992 -0.333008 -1.33398 -1 -2.00098l-1 -0.5c-0.666992 -0.333008 -1.33398 -0.5 -2.00098 -0.5c-2 0.666992 -3.33301 2 -4 4c0 0.666992 -0.166992 1.5 -0.5 2.5l-0.5 1.5v4.5v4.5
c-0.666992 3.33301 -1 8.33301 -1 15c0 108 11.667 230 35 366c7.33301 40.667 15.333 80.334 24 119.001l8 66c12.667 100.667 25 171.334 37 212.001l2 4c0.666992 1.33301 1.83398 3.83301 3.50098 7.5s3 6.33398 4 8.00098s2.5 4 4.5 7s3.66699 4.16699 5 3.5
s3 -1.33398 5 -2.00098c1.33301 -2.66699 1 -5 -1 -7c-2.66699 -2 -7 -10 -13 -24c-6 -15.333 -13.333 -44.666 -22 -87.999c-9.33301 -52 -16 -98.333 -20 -139c22.667 74 47.334 124.333 74.001 151c17.333 20.667 34 34.334 50 41.001
c14.667 4.66699 27.167 4.83398 37.5 0.500977s18.5 -11.833 24.5 -22.5c17.333 -35.333 16.333 -87.333 -3 -156c-11.333 -38 -26.666 -72.667 -45.999 -104c9.33301 4 18.166 6.5 26.499 7.5s15.833 0.666992 22.5 -1s13.167 -4.5 19.5 -8.5s11.833 -8.5 16.5 -13.5
s9.16699 -10.833 13.5 -17.5s8 -13.5 11 -20.5s5.83301 -14.333 8.5 -22s5 -15 7 -22s3.66699 -13.833 5 -20.5c10.667 -56 10.334 -115.667 -0.999023 -179z" />
    <glyph glyph-name="C" unicode="C" horiz-adv-x="361" 
d="M363 185c1.33301 3.33301 3.6709 3.66699 7.00391 1c2 -1.33301 2 -3 0 -5c-40 -72 -79.667 -121.667 -119 -149c-36 -24 -71.333 -34 -106 -30c-32.667 3.33301 -59.667 17.5 -81 42.5s-37.666 55.5 -48.999 91.5c-22.667 78.667 -19.334 173.667 9.99902 285
c27.333 109.333 69 195.333 125 258c16.667 18.667 34 33.667 52 45c37.333 25.333 69 32 95 20c16.667 -6.66699 27.167 -21.334 31.5 -44.001s3.83301 -43.667 -1.5 -63c-4 -13.333 -6.33301 -21.666 -7 -24.999l-6 -19l5.5 7c3.66699 4.66699 6.83398 8 9.50098 10
s5 2 7 0c0.666992 -0.666992 1 -1.66699 1 -3s-0.333008 -2.5 -1 -3.5s-1.5 -2.16699 -2.5 -3.5s-2 -2.33301 -3 -3s-2.16699 -1.66699 -3.5 -3l-3 -3c-5.33301 -6 -11.333 -14.333 -18 -25c-0.666992 -2.66699 -1.83398 -6.66699 -3.50098 -12l-4 -13
c-1 -3.33301 -2.33301 -7 -4 -11s-3.83398 -7 -6.50098 -9h-1c-3.33301 -2 -5 -0.666992 -5 4v2v1v1c2 13.333 7.66699 27.333 17 42c3.33301 10 6.33301 19.667 9 29s5.66699 21.333 9 36s4.83301 27.667 4.5 39s-1.83301 22.166 -4.5 32.499s-8.33398 18 -17.001 23
s-20.334 6.5 -35.001 4.5c-32.667 -5.33301 -66.334 -28.333 -101.001 -69c-52 -61.333 -93 -144.666 -123 -249.999c-30.667 -108.667 -35.334 -201.334 -14.001 -278.001c14 -48 36 -83.333 66 -106c32.667 -23.333 68.667 -28.333 108 -15c16 4.66699 31.167 12 45.5 22
s26.333 19.5 36 28.5s20.334 21.833 32.001 38.5s20 29.334 25 38.001z" />
    <glyph glyph-name="D" unicode="D" horiz-adv-x="418" 
d="M240 76c8 5.33301 15.666 12.3311 22.999 20.998s12.833 15.834 16.5 21.501s9.5 15.5 17.5 29.5l15 26c-61.333 -15.333 -96.333 -42.666 -105 -81.999c-2 -12 0.833008 -19.167 8.5 -21.5s15.834 -0.5 24.501 5.5zM11.999 34.998
c5.33301 37.333 10.666 77.832 15.999 121.499s10.833 91.334 16.5 143.001s10.167 91.167 13.5 118.5c-30.667 -106 -47.667 -207.333 -51 -304c-1.33301 -38 0.333984 -65.333 5.00098 -82v1v2zM389.999 188.997c5.33301 0 11.3291 -0.169922 17.9961 -0.50293
s11.334 -0.5 14.001 -0.5s4 -1.5 4 -4.5s-1.66699 -4.5 -5 -4.5c-6 0 -13.333 0.166992 -22 0.5s-16 0.666016 -22 0.999023s-13.333 0.166016 -22 -0.500977s-17.667 -1.66699 -27 -3c-1.33301 -2 -4.66602 -7.66699 -9.99902 -17s-9 -15.333 -11 -18
s-5.33301 -7.83398 -10 -15.501s-8.5 -13.334 -11.5 -17.001l-12 -14c-5 -5.66699 -9.83301 -10.5 -14.5 -14.5l-14 -12c-20.667 -12 -34.667 -11 -42 3c-6.66699 16 -1.33398 35 15.999 57c18.667 22.667 47 39.334 85 50.001c1.33301 0 3.5 0.333008 6.5 1
s5.16699 1.33398 6.5 2.00098c24.667 50.667 42 110.334 52 179.001c8.66699 54.667 11.5 114.667 8.5 180s-12.5 121 -28.5 167c-20 54.667 -44 81.667 -72 81c-14 0 -30.667 -9 -50 -27c-13.333 -12.667 -26.833 -29.334 -40.5 -50.001s-23.667 -37.167 -30 -49.5
s-16.166 -32.833 -29.499 -61.5c-18.667 -40 -36 -83.333 -52 -130l-28 -220l-25 -203c-2 -13.333 -3.33301 -20.666 -4 -21.999c0 -4 -2 -6 -6 -6c-2 0 -3.83301 0.833008 -5.5 2.5s-2.66699 4 -3 7s-0.666016 5.83301 -0.999023 8.5s-0.666016 5.66699 -0.999023 9
s-0.5 5.66602 -0.5 6.99902c-1.33301 18 -1.66602 38.333 -0.999023 61c4.66699 118 26 235 64 351c2.66699 20 6.33398 50.333 11.001 91s8.16699 69.834 10.5 87.501s5.66602 41 9.99902 70s9.16602 56.833 14.499 83.5c0 1.33301 1 2.33301 3 3
s3.66699 0.333984 5 -0.999023s1.66602 -2.66602 0.999023 -3.99902c-3.33301 -31.333 -9.5 -77.833 -18.5 -139.5s-15.5 -108.5 -19.5 -140.5c32 86.667 64 155.334 96 206.001c21.333 34.667 43.333 59 66 73c11.333 6 22 9.5 32 10.5s19 -0.5 27 -4.5s15.5 -9 22.5 -15
s13.167 -13.667 18.5 -23s9.83301 -17.666 13.5 -24.999s7.16699 -15.333 10.5 -24c22.667 -70.667 32.834 -148.5 30.501 -233.5s-14.833 -161.167 -37.5 -228.5c-7.33301 -20.667 -17 -43 -29 -67c15.333 2.66699 35 4 59 4z" />
    <glyph glyph-name="E" unicode="E" horiz-adv-x="334" 
d="M366 710c0 -2.66699 -0.99707 -5.16992 -2.99707 -7.50293s-4 -3.66602 -6 -3.99902s-3.66699 0.5 -5 2.5c-1.33301 2.66699 -1 5 1 7h-9c-20.667 0 -44.5 -1.5 -71.5 -4.5s-57 -7.16699 -90 -12.5s-55.833 -8.66602 -68.5 -9.99902c-6 -32 -16.833 -84.833 -32.5 -158.5
l-35.5 -168.5h1.5h1.5c0.666992 -0.666992 5 -1.33398 13 -2.00098c1.33301 0 2.83301 -0.166992 4.5 -0.5s3.16699 -0.5 4.5 -0.5h19c2 0.666992 5.66699 1 11 1c69.333 6 139.666 18 210.999 36c2 0 3.66699 -0.666992 5 -2s1.83301 -2.83301 1.5 -4.5
s-1.5 -2.5 -3.5 -2.5c-66.667 -16.667 -130.334 -27.334 -191.001 -32.001c-1.33301 0 -3.33301 -0.166992 -6 -0.5s-4.66699 -0.5 -6 -0.5s-3.33301 -0.166992 -6 -0.5s-4.5 -0.5 -5.5 -0.5h-5.5c-2.66699 -0.666992 -4.66699 -1 -6 -1h-20c-0.666992 0 -2 0.166992 -4 0.5
s-3.33301 0.5 -4 0.5c-2 0 -4.66699 0.166992 -8 0.5s-5.66602 0.5 -6.99902 0.5l-1.5 0.5c-1 0.333008 -1.83301 0.5 -2.5 0.5c-11.333 -57.333 -20 -112.333 -26 -165c-4.66699 -39.333 -7 -71.666 -7 -96.999c0 -48 8.33301 -76 25 -84c28 -16.667 83 -22 165 -16
c58.667 2.66699 113 10.334 163 23.001c3.33301 0.666992 6 -1 8 -5c1.33301 -2.66699 0.333008 -4.33398 -3 -5.00098c-8.66699 -2 -41 -6.66699 -97 -14c-84.667 -10 -148.667 -11.667 -192 -5c-33.333 6 -54 17 -62 33c-9.33301 13.333 -14.333 37.333 -15 72
c-1.33301 30 -0.5 62.333 2.5 97s6.33301 62.834 10 84.501l15.5 89.5c2 9.33301 3.33301 16.333 4 21c8.66699 46.667 30 147.334 64 302.001c-8.66699 -2 -13.667 -1.66699 -15 1c-0.666992 3.33301 0.666016 5.33301 3.99902 6c3.33301 0 7.66602 0.333008 12.999 1l3 17
c0.666992 3.33301 2.5 5.33301 5.5 6s5.83301 0 8.5 -2s3.66699 -4.66699 3 -8c-1.33301 -2 -2.33301 -5.33301 -3 -10c112 16 182 25 210 27c8.66699 0.666992 14.667 1 18 1c10 0 16.667 -1 20 -3c1.33301 0 2 -1.33301 2 -4z" />
    <glyph glyph-name="F" unicode="F" horiz-adv-x="369" 
d="M48 391c-21.333 -112 -34.333 -222.668 -39 -332.001c0 -6.66699 0.166992 -16.167 0.5 -28.5s0.5 -21.5 0.5 -27.5c3.33301 18 7 46.333 11 85c4 34.667 13 129.334 27 284.001v19zM151 700.999c-25.333 -46 -47.999 -103.334 -67.999 -172.001
c-0.666992 0 -1 -0.333008 -1 -1l-3 -66l-6 -58c9.33301 0.666992 27.833 2.66699 55.5 6l68 8c17.667 2 38.667 4 63 6s45.166 3.33301 62.499 4h5c26 0 39 -4 39 -12c0 -0.666992 -0.166992 -1.16699 -0.5 -1.5s-0.5 -0.666016 -0.5 -0.999023s-0.166992 -0.5 -0.5 -0.5
s-0.5 -0.333008 -0.5 -1c-1.33301 -2 -3.66602 -4 -6.99902 -6s-6 -1.66699 -8 1c-1.33301 2.66699 -0.666016 4.66699 2.00098 6c0.666992 0.666992 1.66699 1.33398 3 2.00098l1 1c-2 1.33301 -3.33301 2 -4 2c-3.33301 0.666992 -6.33301 1 -9 1h-21
c-34.667 0 -117.667 -7 -249 -21c0 -0.666992 -4 -42.334 -12 -125.001l-10 -95c-11.333 -94 -20.666 -157.333 -27.999 -190c-3.33301 -8.66699 -5.33301 -13.667 -6 -15c-0.666992 0 -1 -0.166992 -1 -0.5s-0.166992 -0.5 -0.5 -0.5s-1 -0.166992 -2 -0.5l-1.5 -0.5
c-5.33301 0 -8 1.66699 -8 5c0 0.666992 -0.166992 1.33398 -0.5 2.00098l-0.5 1c-0.666992 3.33301 -1 5.66602 -1 6.99902c-0.666992 5.33301 -1 13.333 -1 24c0 58.667 7 138.334 21 239.001c6 52.667 14 101.334 24 146.001l-7 -1
c-2 -0.666992 -3.5 -0.333984 -4.5 0.999023s-1.33301 3 -1 5s1.5 3 3.5 3h1c2.66699 0.666992 6 1 10 1l3 15l3 15c1.33301 17.333 3.33301 41 6 71l7.5 82.5c2.33301 25 4.83301 48.5 7.5 70.5c0 3.33301 1.66699 17 5 41s5 42 5 54c0 4.66699 3.33301 7.66699 10 9
c2.66699 -0.666992 5 -1.83398 7 -3.50098s2.66699 -3.83398 2 -6.50098c0 -1.33301 -1.33301 -14.333 -4 -39s-4.33398 -43 -5.00098 -55l-9 -96v-3c20 62.667 39.667 113.334 59 152.001c2 2.66699 4.33301 3.33398 7 2.00098h1
c2.66699 -2.66699 8.33398 -5.66699 17.001 -9c17.333 -7.33301 36.666 -11 57.999 -11h20c32 0 78.667 6 140 18c23.333 4 49.666 10 78.999 18c1.33301 0 2.66602 -0.5 3.99902 -1.5s1.83301 -2.33301 1.5 -4s-1.5 -2.83398 -3.5 -3.50098
c-73.333 -21.333 -140 -33.333 -200 -36h-11h-10h-21c-34 0 -59 5.66699 -75 17z" />
    <glyph glyph-name="G" unicode="G" horiz-adv-x="486" 
d="M367 159c-44 -15.333 -83.5 -39.668 -118.5 -73.001s-60.833 -72.666 -77.5 -117.999c-11.333 -30.667 -18.333 -61.334 -21 -92.001c-3.33301 -47.333 4.33398 -78.333 23.001 -93c14 -10.667 33.333 -3.66699 58 21c26 26 50 67.667 72 125
c31.333 80.667 52.666 157.334 63.999 230.001zM378 171.998c30.667 10 57.0039 14.998 79.0039 14.998c6.66699 0.666992 14 1 22 1h8c0.666992 0 3 -2.33301 7 -7c0 -0.666992 -0.5 -1.33398 -1.5 -2.00098s-1.83301 -2 -2.5 -4c-2 0.666992 -4.66699 1 -8 1
c-0.666992 0 -3.5 0.166992 -8.5 0.5s-9.5 0.5 -13.5 0.5c-21.333 0 -48 -4.66699 -80 -14c-0.666992 0 -1.16699 -0.166992 -1.5 -0.5s-0.833008 -0.5 -1.5 -0.5v-6c-14.667 -87.333 -34.667 -164 -60 -230c-22.667 -58 -49.334 -102.667 -80.001 -134
c-25.333 -24.667 -47 -30 -65 -16c-14.667 11.333 -23.5 30 -26.5 56s-2.33301 50.833 2 74.5s10.166 45.167 17.499 64.5c18.667 48 45.834 89.333 81.501 124s76.167 59.334 121.5 74.001c13.333 88.667 18 166.334 14 233.001
c-2.66699 42.667 -9.33398 69.334 -20.001 80.001h-0.5h-1.5c-2.66699 2.66699 -10.334 0.333984 -23.001 -6.99902c-18 -11.333 -49 -37 -93 -77c-36.667 -34 -67 -60.667 -91 -80c-29.333 -23.333 -55.333 -39 -78 -47c-12 -5.33301 -24 -6.5 -36 -3.5
s-20.667 9.5 -26 19.5c-10.667 17.333 -14.667 47 -12 89c9.33301 114 47.333 210 114 288c42 48.667 88.667 82 140 100c47.333 18.667 91.666 20 132.999 4c19.333 -4.66699 35.5 -14 48.5 -28s25.5 -31.333 37.5 -52c3.33301 -6 1.66602 -10 -5.00098 -12
c-4 -1.33301 -7 -0.333008 -9 3l-20 30c-33.333 33.333 -71 49.666 -113 48.999c-21.333 -0.666992 -43 -5.33398 -65 -14.001c-50.667 -19.333 -95.667 -53.166 -135 -101.499s-67.666 -102.833 -84.999 -163.5c-10.667 -34 -17.334 -69 -20.001 -105
c-1.33301 -15.333 -2.16602 -30.333 -2.49902 -45s3.66699 -26.334 12 -35.001s20.5 -10.334 36.5 -5.00098c22 8.66699 46.333 23 73 43c14 10 28.667 21.5 44 34.5l51 44l43 37.5c23.333 18.667 40 31.334 50 38.001c9.33301 6.66699 17 10 23 10h5l5 -2
c8 0 14.333 -10 19 -30c12 -45.333 15 -107.333 9 -186c-2.66699 -31.333 -6.66699 -66.666 -12 -105.999z" />
    <glyph glyph-name="H" unicode="H" horiz-adv-x="445" 
d="M479 694c9.33301 24.667 14.002 45.3311 14.002 61.998c0 22 -6 37 -18 45l-1 1c-2 -2 -3.83301 -4.66699 -5.5 -8s-3.33398 -7.16602 -5.00098 -11.499s-2.83398 -8 -3.50098 -11l-3 -13c-1.33301 -5.66699 -2.33301 -9.16699 -3 -10.5
c-7.33301 -34 -15.333 -80.667 -24 -140c22 30.667 38.333 59.334 49 86.001zM75.002 47.9971c26.667 54 47.001 136.002 61.001 246.002c-61.333 -70 -100 -141 -116 -213c-6.66699 -31.333 -7.33398 -55.333 -2.00098 -72c2 -6.66699 5 -10.334 9 -11.001s8.5 1 13.5 5
s9.16699 7.66699 12.5 11s6 6.66602 8 9.99902c4 4.66699 8.66699 12.667 14 24zM481.003 810.999c10.667 -5.33301 15.335 -13.3369 14.002 -24.0039c4.66699 -8.66699 7 -20 7 -34c-0.666992 -17.333 -6 -38.666 -16 -63.999
c-13.333 -31.333 -33.666 -65.666 -60.999 -102.999c-2 -9.33301 -7.66699 -55 -17 -137c-17.333 -162.667 -28.333 -293.334 -33 -392.001c-4 -88 -4.33301 -151.333 -1 -190c1.33301 -19.333 3.33301 -30.333 6 -33l2 1c5.33301 17.333 10 25.333 14 24
c6.66699 -1.33301 4.33398 -9.66602 -6.99902 -24.999c-2 -3.33301 -3.66699 -5.33301 -5 -6l-1.5 -0.5c-1 -0.333008 -1.83301 -0.5 -2.5 -0.5c-1.33301 0.666992 -2.83301 2 -4.5 4s-2.83398 3.83301 -3.50098 5.5s-1.33398 4.16699 -2.00098 7.5s-1 6 -1 8
s-0.166992 4.83301 -0.5 8.5s-0.5 6.5 -0.5 8.5c-0.666992 20 -1 37.333 -1 52c0 202.667 14.333 418.667 43 648c-46.667 -58.667 -105.334 -118.667 -176.001 -180c-2.66699 -2 -10 -8.16699 -22 -18.5s-21 -18.5 -27 -24.5l-26 -26
c-10.667 -84.667 -26.667 -159.334 -48 -224.001c-17.333 -50.667 -37.666 -85 -60.999 -103c-15.333 -11.333 -27.333 -12.666 -36 -3.99902c-16.667 12.667 -19 44.334 -7 95.001c20 76.667 62.333 150.667 127 222l5 5c16 118.667 26.333 253 31 403v31
c0 5.33301 2.66699 8 8 8s8 -2.66699 8 -8c0.666992 -2 1 -4.66699 1 -8v-10v-14c0 -128.667 -8.33301 -255 -25 -379c6 6.66699 12.667 13.334 20 20.001s16 14 26 22l22 18c78 68 138.667 131 182 189l3 3c11.333 88 23.666 153 36.999 195
c5.33301 24 13.666 34.667 24.999 32c0.666992 0 1.16699 -0.166992 1.5 -0.5l0.5 -0.5z" />
    <glyph glyph-name="I" unicode="I" horiz-adv-x="304" 
d="M356 757l6.50293 -0.00195312h8.5c2 0 4.66699 -0.166992 8 -0.5s6 -0.666016 8 -0.999023s4.16699 -1 6.5 -2s4.16602 -2.16699 5.49902 -3.5s2 -2.66602 2 -3.99902c0 -6.66699 -3.66699 -9 -11 -7c-4.66699 1.33301 -5.66699 3.66602 -3 6.99902
c-0.666992 0 -2.5 0.166992 -5.5 0.5s-5.16699 0.5 -6.5 0.5h-5.5c-2.33301 0 -4.83301 0.166992 -7.5 0.5s-4.66699 0.5 -6 0.5c-28.667 0 -64.334 -2 -107.001 -6v-1c0 -2 -1 -19.333 -3 -52c-6.66699 -68.667 -19.5 -173 -38.5 -313s-29.5 -219 -31.5 -237
c-2 -12.667 -4.33301 -31.667 -7 -57l-2 -28c-0.666992 -18.667 1.66602 -33 6.99902 -43s15 -18.667 29 -26c46 -2 81.667 -5 107 -9h1h2l1 -0.5l1 -0.5l1 -1l0.5 -0.5c0.333008 -0.333008 0.833008 -0.5 1.5 -0.5c1.33301 0 2 -1.33301 2 -4
c-0.666992 -3.33301 -2 -5 -4 -5h-2c-6.66699 -1.33301 -12.334 -2 -17.001 -2c-43.333 -3.33301 -78 2 -104 16c-31.333 2 -57 3 -77 3c-59.333 0 -96 -1.66699 -110 -5c-3.33301 -0.666992 -5.33301 0.666016 -6 3.99902s0.666016 5.33301 3.99902 6
c5.33301 0.666992 22 1.33398 50 2.00098s48.667 1 62 1c19.333 0 40.333 -0.666992 63 -2c-6 4 -10.833 9.83301 -14.5 17.5s-6.16699 15 -7.5 22s-2 16.5 -2 28.5s0.333008 21.333 1 28s1.83398 17 3.50098 31s2.5 23 2.5 27c6 54.667 18.167 149 36.5 283
s30.166 235.667 35.499 305v8v5c-60 -5.33301 -105 -12 -135 -20c-1.33301 0 -2.66602 0.666992 -3.99902 2s-1.66602 2.83301 -0.999023 4.5s1.66699 2.83398 3 3.50098c23.333 5.33301 74.333 12 153 20c40.667 3.33301 76 5 106 5zM243.003 -25.002h-1h1z
M266.003 -27.002c1.33301 0 3 -0.333008 5 -1z" />
    <glyph glyph-name="J" unicode="J" horiz-adv-x="432" 
d="M79 -207c0 -12 5.66699 -18.001 17 -18.001c8.66699 0 19 4 31 12c10.667 6.66699 17 11 19 13l10 7c21.333 17.333 42.333 45 63 83c28.667 51.333 51 117.333 67 198l-10 -8c-47.333 -40 -90 -86.333 -128 -139c-20 -29.333 -36.333 -56.666 -49 -81.999
c-13.333 -27.333 -20 -49.333 -20 -66zM97 -234.001c-16.667 0 -25.002 9.33398 -25.002 28.001c0 16.667 7 39.667 21 69c26.667 52.667 63.667 104.667 111 156c31.333 34.667 59.666 61.667 84.999 81c7.33301 37.333 14.333 80.166 21 128.499s11.334 86.5 14.001 114.5
s6.83398 75.667 12.501 143s9.5 109 11.5 125c-14 -14 -39 -32 -75 -54c-17.333 -11.333 -42.666 -26.333 -75.999 -45l-73 -41c-1.33301 -1.33301 -3.66602 -3 -6.99902 -5c-17.333 -10.667 -30.5 -19 -39.5 -25s-19.667 -14.833 -32 -26.5s-21.5 -23.5 -27.5 -35.5
c-4.66699 -8 -7.66699 -16.333 -9 -25c0 -3.33301 -1.66699 -5 -5 -5c-2.66699 0 -4 1.66699 -4 5v1c3.33301 22.667 16.333 43.334 39 62.001l22 19c19.333 13.333 40.666 27.166 63.999 41.499l77.5 46c28.333 16.333 50.5 29.5 66.5 39.5c26.667 17.333 49 35 67 53
c6 6.66699 10.667 14 14 22c1.33301 3.33301 4 4.5 8 3.5s6 -3.5 6 -7.5v-3l-6 -94l-7 -95c-10 -124 -24.667 -234 -44 -330c42 33.333 84.333 58.333 127 75c2 0.666992 3.66699 0.5 5 -0.5s2 -2.5 2 -4.5s-1 -3.33301 -3 -4c-49.333 -18.667 -94 -44 -134 -76
c-6.66699 -28.667 -12.334 -51.5 -17.001 -68.5s-11.167 -38.167 -19.5 -63.5s-16.666 -46.333 -24.999 -63s-18.5 -34.167 -30.5 -52.5s-25.333 -33.833 -40 -46.5l-9 -9l-10 -7l-21 -13c-12 -8.66699 -23.667 -13 -35 -13z" />
    <glyph glyph-name="K" unicode="K" horiz-adv-x="404" 
d="M28 271c-0.666992 -4.66699 -7.00098 -122.003 -19.001 -352.003c0 -3.33301 -1.66699 -5 -5 -5c-2.66699 0 -4 1.66699 -4 5c0.666992 36 2.33398 81 5.00098 135c12 261.333 27.667 457.333 47 588c0.666992 2.66699 1.66699 8.33398 3 17.001
s2.16602 14.334 2.49902 17.001s1.16602 7.5 2.49902 14.5s2.33301 11.833 3 14.5l3 12.5c1.33301 5.66699 2.66602 10 3.99902 13l4.5 10.5c1.66699 4 3.5 7.66699 5.5 11c6.66699 12 14.667 13.333 24 4c2.66699 -3.33301 2 -5.33301 -2 -6c-2.66699 0 -5 0.666992 -7 2
h-1h-1c-3.33301 -2 -6.66602 -8.33301 -9.99902 -19c-6 -17.333 -12.333 -48.666 -19 -93.999c-14.667 -96 -26.334 -215 -35.001 -357c18 8.66699 38 24 60 46c14 12.667 33.667 33.334 59 62.001c98.667 115.333 174.667 234.333 228 357c12.667 32 21.667 58.333 27 79
c1.33301 6 5 7.33301 11 4c2.66699 -1.33301 3.66699 -3 3 -5c-8.66699 -47.333 -29.667 -101 -63 -161c-53.333 -99.333 -119 -193 -197 -281c-42 -48.667 -80.333 -83 -115 -103c18.667 -2.66699 36.334 -6.83398 53.001 -12.501s33.5 -13.5 50.5 -23.5
s30.5 -18.5 40.5 -25.5l42 -30.5c0.666992 -0.666992 6.5 -5.33398 17.5 -14.001s18.833 -14.5 23.5 -17.5s12.5 -7.5 23.5 -13.5s20 -9.5 27 -10.5s15.333 -0.666992 25 1s18.5 5.83398 26.5 12.501c12 9.33301 23.667 23 35 41c2 3.33301 4.33301 3.33301 7 0
c2 -1.33301 2.33301 -3 1 -5c-8 -12.667 -15.167 -23 -21.5 -31s-16.166 -15.333 -29.499 -22s-27.666 -8.66699 -42.999 -6c-14 2.66699 -31.667 10.667 -53 24c-12 7.33301 -29.167 19.5 -51.5 36.5s-41 30.667 -56 41s-34.5 20.333 -58.5 30s-48.333 15.167 -73 16.5z
" />
    <glyph glyph-name="L" unicode="L" horiz-adv-x="253" 
d="M411 -30c32.667 -2 50.667 -10.3398 54 -25.0068c0.666992 -2 0.166992 -3.5 -1.5 -4.5s-3.5 -1.33301 -5.5 -1s-3.33301 1.5 -4 3.5c-3.33301 18.667 -37.333 23.667 -102 15c-25.333 -2.66699 -63.333 -8.66699 -114 -18l-115 -21l-57 -9
c-31.333 -5.33301 -50.666 -8 -57.999 -8c-2.66699 0 -4.66699 0.5 -6 1.5s-2 2.5 -2 4.5v1c7.33301 32.667 17.666 103.334 30.999 212.001c26 233.333 42.667 376.333 50 429c10 74 21 127.333 33 160c0 0.666992 0.666992 2.83398 2 6.50098s2.5 6.33398 3.5 8.00098
s2.33301 4.16699 4 7.5s3.33398 5.83301 5.00098 7.5s3.66699 3.16699 6 4.5s4.83301 2 7.5 2c2.66699 -0.666992 5.66699 -2 9 -4s5.5 -4.16699 6.5 -6.5s0.5 -4.5 -1.5 -6.5c-2 -1.33301 -3.5 -1.66602 -4.5 -0.999023s-2.33301 1.83398 -4 3.50098s-3.16699 2.5 -4.5 2.5
c-3.33301 0 -8 -9.66699 -14 -29c-8.66699 -31.333 -18.334 -83.666 -29.001 -156.999c-6.66699 -46.667 -17.5 -138.667 -32.5 -276s-28.833 -241.666 -41.5 -312.999c-3.33301 -18.667 -6.33301 -33.667 -9 -45c44 4 103.833 12.833 179.5 26.5s127.5 22.167 155.5 25.5
c26 2.66699 45.667 4 59 4z" />
    <glyph glyph-name="M" unicode="M" horiz-adv-x="644" 
d="M21 -82c8.66699 31.333 14.666 70.668 17.999 118.001c-1.33301 -6.66699 -4.66602 -19.834 -9.99902 -39.501s-9.5 -36.5 -12.5 -50.5s-5.16699 -28 -6.5 -42c-0.666992 -1.33301 -1 -4 -1 -8v-2l0.5 0.5l0.5 0.5c3.33301 3.33301 7 11 11 23zM645.999 186.002
c1.33301 1.33301 2.99902 1.50488 4.99902 0.504883s2.33301 -2.83301 1 -5.5c-18 -24 -36.333 -40 -55 -48c-6.66699 -2.66699 -13 -4 -19 -4c-2 0 -4.16699 0.166992 -6.5 0.5s-4.33301 0.666016 -6 0.999023s-3.33398 0.833008 -5.00098 1.5s-3.16699 1.5 -4.5 2.5l-4 3
c-1.33301 1 -2.66602 2.16699 -3.99902 3.5s-2.5 2.33301 -3.5 3s-2.16699 1.83398 -3.5 3.50098s-2.33301 2.83398 -3 3.50098c-10 12 -14 39 -12 81c1.33301 20 3.16602 43 5.49902 69s4.83301 51.833 7.5 77.5s4.33398 48.167 5.00098 67.5c2 13.333 2.66699 28.5 2 45.5
s-2 33 -4 48s-7.66699 26.167 -17 33.5s-21.666 7.66602 -36.999 0.999023c-20.667 -10.667 -43.334 -36.667 -68.001 -78c-36 -60.667 -72 -148 -108 -262c-16.667 -53.333 -30 -99 -40 -137c-1.33301 -5.33301 -4.66602 -7.33301 -9.99902 -6
s-7.66602 4.66602 -6.99902 9.99902c33.333 175.333 52.666 314.666 57.999 417.999c0.666992 10.667 1 21.5 1 32.5s-0.333008 24.667 -1 41s-3 28.666 -7 36.999s-9 10.5 -15 6.5c-2.66699 -1.33301 -5.16699 -2.83301 -7.5 -4.5s-4.33301 -3.33398 -6 -5.00098
s-3.66699 -3.83398 -6 -6.50098s-4.16602 -4.83398 -5.49902 -6.50098s-3 -4.16699 -5 -7.5l-4.5 -7.5l-4.5 -7.5c-2 -3.33301 -3.33301 -5.66602 -4 -6.99902c-26 -39.333 -56.333 -102.666 -91 -189.999c-34 -84 -65 -172.333 -93 -265l-10 -32l-3 -39
c-7.33301 -68 -15 -114.667 -23 -140c-7.33301 -22.667 -14.333 -33.334 -21 -32.001c-2.66699 0 -4.66699 1.66699 -6 5c-0.666992 0.666992 -1 1.66699 -1 3v5c0 8.66699 1 17.667 3 27c6 30.667 19 82.334 39 155.001c4.66699 52 7.66699 91.333 9 118l17 281
c6.66699 94.667 13 165 19 211c4.66699 30.667 9.66699 54 15 70c1.33301 4 4 5.33301 8 4s5.66699 -4 5 -8c-6 -26 -12.333 -72 -19 -138c-3.33301 -30.667 -7.66602 -77.334 -12.999 -140.001l-20 -281c-0.666992 -13.333 -2.33398 -35.333 -5.00098 -66
c50.667 163.333 100 294.666 148 393.999c19.333 39.333 37.333 70 54 92c0.666992 0.666992 2 2.5 4 5.5s3.66699 5.16699 5 6.5l5.5 5.5c2.33301 2.33301 4.5 4.16602 6.5 5.49902s4.5 2.5 7.5 3.5s5.83301 1.5 8.5 1.5c5.33301 0 9.66602 -1.66699 12.999 -5
s5.83301 -9.16602 7.5 -17.499s2.83398 -13.833 3.50098 -16.5s1.33398 -8.66699 2.00098 -18c1.33301 -12 2 -24.667 2 -38s-0.166992 -24.666 -0.5 -33.999s-1.16602 -21.666 -2.49902 -36.999s-2.33301 -26.333 -3 -33l-3.5 -36.5
c-1.66699 -17.667 -2.83398 -28.834 -3.50098 -33.501c-10.667 -87.333 -17.667 -141 -21 -161c2.66699 8 8.33398 24.167 17.001 48.5s15 41.5 19 51.5l18 46c8 20.667 14.833 37.334 20.5 50.001s12.667 27.167 21 43.5s16.5 31.5 24.5 45.5
c25.333 41.333 49.666 68 72.999 80c10.667 4.66699 21 6 31 4s17.667 -7 23 -15c13.333 -19.333 18 -61.333 14 -126c-0.666992 -18.667 -2.33398 -41.167 -5.00098 -67.5l-8 -77c-2.66699 -25 -4.33398 -47.833 -5.00098 -68.5c-2 -38 1.33301 -63.667 10 -77
c17.333 -16.667 34.333 -21.334 51 -14.001c16.667 6.66699 33.667 22 51 46z" />
    <glyph glyph-name="N" unicode="N" horiz-adv-x="554" 
d="M73 608c2 -10.667 2.99902 -40.3271 2.99902 -88.9941c-3.33301 -157.333 -14.666 -309.333 -33.999 -456c-9.33301 -69.333 -20 -121 -32 -155c4.66699 6 9 12 13 18l113 194.5l108 188.5c0.666992 1.33301 5.33398 9.16602 14.001 23.499s13.834 22.666 15.501 24.999
s6.33398 10 14.001 23s12.834 21.5 15.501 25.5l15 23c7.33301 11.333 12.833 19.5 16.5 24.5l15.5 21.5c6.66699 9.33301 12.5 17.166 17.5 23.499l17 21l18.5 21.5l6 6l7 7c1.33301 1.33301 3.66602 3.5 6.99902 6.5s6.16602 5.16699 8.49902 6.5
s5.16602 2.83301 8.49902 4.5s6.66602 2.83398 9.99902 3.50098c11.333 2.66699 19.333 -0.833008 24 -10.5s7 -21.5 7 -35.5c0.666992 -15.333 -0.666016 -33.666 -3.99902 -54.999c-5.33301 -39.333 -12.833 -80.166 -22.5 -122.499s-21.5 -89.5 -35.5 -141.5
s-23.667 -89.333 -29 -112c-8.66699 -36 -13.667 -62.333 -15 -79c-0.666992 -7.33301 -0.333984 -13.333 0.999023 -18s5 -6.33398 11 -5.00098c6 2 15.333 8 28 18c29.333 27.333 70.666 77.333 123.999 150c12 15.333 19 23 21 23c1.33301 -0.666992 2 -1.5 2 -2.5
s-0.5 -2.5 -1.5 -4.5s-2.16699 -3.83301 -3.5 -5.5l-6 -7.5c-2.66699 -3.33301 -4.66699 -6 -6 -8c-52.667 -70.667 -95 -120.667 -127 -150c-13.333 -11.333 -23.666 -18 -30.999 -20c-5.33301 -0.666992 -9.66602 0.166016 -12.999 2.49902s-5.33301 6.33301 -6 12
s-1 11.667 -1 18s0.666992 13.833 2 22.5l3.5 22c1 6 2.5 12.667 4.5 20s3 12 3 14l34 145c15.333 64.667 25.333 108 30 130c8.66699 37.333 15 71.333 19 102c3.33301 20.667 5 38 5 52c0 13.333 -2 23.166 -6 29.499s-10.667 6.5 -20 0.5c-6 -3.33301 -16 -12 -30 -26
c-10.667 -11.333 -22.667 -25.333 -36 -42c-32.667 -42 -74.334 -104 -125.001 -186l-114 -194l-34.5 -60.5l-39.5 -70l-34 -58.5l-15 -23c-1.33301 -2 -3.33301 -3.66699 -6 -5c0 -0.666992 -0.333008 -1 -1 -1c-4.66699 0 -7 2 -7 6v4
c0.666992 3.33301 1.66699 7.66602 3 12.999c10 33.333 19 82.666 27 147.999c13.333 112.667 23.333 264 30 454c1.33301 33.333 2 58.666 2 75.999v7h-1c-2.66699 0.666992 -3.66699 2.66699 -3 6v2l0.5 1l0.5 1c0 1.33301 0.333008 2.66602 1 3.99902
c0 0.666992 0.666992 1.66699 2 3h1h1h3c4 -1.33301 6 -4.66602 6 -9.99902z" />
    <glyph glyph-name="O" unicode="O" horiz-adv-x="420" 
d="M252 630c-11.333 -5.33301 -17.002 -5.66504 -17.002 -0.998047c-8.66699 -3.33301 -19.334 -12.333 -32.001 -27c-53.333 -64.667 -101.666 -159.334 -144.999 -284.001c-27.333 -80 -41 -151.333 -41 -214c0 -66 18.667 -110 56 -132
c24.667 -12 50.334 -17.167 77.001 -15.5s50.667 9.16699 72 22.5c54 33.333 94.333 97.333 121 192c16 59.333 24.667 122.666 26 189.999s-6.33398 130 -23.001 188c-11.333 33.333 -24.666 57 -39.999 71c-12.667 10.667 -26.334 15 -41.001 13
c0.666992 -1.33301 0.333984 -2.5 -0.999023 -3.5s-2.66602 -1.5 -3.99902 -1.5h-5h-1zM310.998 628.001c33.333 -31.333 54 -93.001 62 -185.001c9.33301 -94.667 2 -186 -22 -274c-28 -98.667 -69.333 -164.667 -124 -198c-23.333 -14 -49 -22.333 -77 -25
s-55.667 2.33301 -83 15c-56 31.333 -77 105 -63 221c10.667 78.667 38.334 166.667 83.001 264c35.333 76 70.333 132 105 168c19.333 19.333 35.666 30 48.999 32c6 0.666992 11.333 -0.666016 16 -3.99902c20 4 38 -0.666992 54 -14z" />
    <glyph glyph-name="P" unicode="P" horiz-adv-x="483" 
d="M311 85c18.667 14 34.668 39.667 48.001 77c-42 -16.667 -72 -38 -90 -64c-12 -16 -15 -26.333 -9 -31c5.33301 -4 16.666 -1.66699 33.999 7c0.666992 0.666992 3.16699 2.16699 7.5 4.5s7.5 4.5 9.5 6.5zM92.001 149c11.333 68.667 17.334 105.666 18.001 110.999
c-12 -35.333 -24.667 -81.333 -38 -138c-31.333 -134.667 -51.333 -254.667 -60 -360c-1.33301 -22 -2 -38.333 -2 -49c10 36.667 26 116.334 48 239.001c17.333 97.333 28.666 163 33.999 197zM131.002 540.999l1.00098 1.50195l2 3c0.666992 1 1.66699 1.83301 3 2.5
s2.66602 1 3.99902 1c2 0.666992 3.83301 0.333984 5.5 -0.999023s3 -3.33301 4 -6s1.83301 -5.16699 2.5 -7.5s1 -4.5 1 -6.5c2.66699 -20 1.66699 -64.667 -3 -134c26 59.333 54.667 99 86 119c14.667 9.33301 29.834 14.166 45.501 14.499s30.167 -4.16699 43.5 -13.5
c38 -30 60.333 -91 67 -183c4 -57.333 -1 -109.333 -15 -156c21.333 6 47.333 10.333 78 13h30c2 0 4 -2.33301 6 -7c0 -3.33301 -1.66699 -5 -5 -5c-2 0 -4.66699 0.333008 -8 1h-5.5c-2.33301 0 -4.83301 0.166992 -7.5 0.5s-5.33398 0.5 -8.00098 0.5
c-27.333 0 -54.333 -4 -81 -12c-18.667 -61.333 -51.334 -98 -98.001 -110c-5.33301 -0.666992 -9 -1 -11 -1c-4.66699 0 -8.5 1.66699 -11.5 5s-4.5 7.33301 -4.5 12c0 7.33301 4 16.666 12 27.999c21.333 29.333 54 52 98 68c12.667 40.667 18.834 85 18.501 133
s-6.83301 91.667 -19.5 131c-20 61.333 -50.333 87.666 -91 78.999c-22.667 -6 -44.334 -22.667 -65.001 -50c-19.333 -26.667 -37.666 -61 -54.999 -103c-30 -248.667 -69.333 -458.667 -118 -630c-6.66699 -25.333 -12.667 -40 -18 -44l-1.5 -1
c-1 -0.666992 -1.83301 -1 -2.5 -1c-2.66699 -0.666992 -4.83398 0.5 -6.50098 3.5s-2.5 5.83301 -2.5 8.5c-0.666992 2 -1 4.66699 -1 8c0 8.66699 1.33301 28.667 4 60c12.667 114 34 234.667 64 362c17.333 75.333 35 138.666 53 189.999
c8.66699 57.333 14.667 100 18 128c0 3.33301 0.666992 10 2 20s2 16.333 2 19s0.333008 7.66699 1 15s0.833984 12.666 0.500977 15.999s-0.666016 7.33301 -0.999023 12s-1.16602 9.33398 -2.49902 14.001l-3 -4c-1.33301 -1.33301 -2.83301 -1.66602 -4.5 -0.999023
s-2.83398 1.66699 -3.50098 3s-0.333984 3 0.999023 5z" />
    <glyph glyph-name="Q" unicode="Q" horiz-adv-x="379" 
d="M250 201c7.33301 -15.333 27.335 -23 60.002 -23c26 0 49.333 3 70 9c2 0.666992 3.5 0.333984 4.5 -0.999023s1.33301 -2.83301 1 -4.5s-1.5 -2.83398 -3.5 -3.50098h-1c-26 -4.66699 -49.667 -7 -71 -7c-25.333 2.66699 -42.333 6 -51 10
c28 -66.667 37 -141.667 27 -225c-5.33301 -63.333 -19.666 -116.666 -42.999 -159.999c-8 -16.667 -17 -28 -27 -34c-6.66699 -4 -12.334 -4.33301 -17.001 -1s-8.33398 7.5 -11.001 12.5s-4.33398 10.167 -5.00098 15.5c-2 10 -3 24.333 -3 43c0 28 3.66699 69.333 11 124
c8 59.333 27.333 168 58 326c25.333 122.667 44 209.334 56 260.001l-23.5 -43c-10.333 -18.667 -16.5 -30 -18.5 -34c-69.333 -124.667 -121.666 -213.334 -156.999 -266.001c-26.667 -39.333 -46.667 -65 -60 -77l-4.5 -3.5c-3 -2.33301 -5 -3.83301 -6 -4.5
s-3.16699 -1.83398 -6.5 -3.50098s-5.66602 -2.16699 -6.99902 -1.5s-4 1.33398 -8 2.00098c-3.33301 1.33301 -6.16602 4 -8.49902 8s-4 8.83301 -5 14.5s-1.66699 11.167 -2 16.5s0 11.833 1 19.5s1.66699 13.667 2 18s1.16602 10.333 2.49902 18s2 12.5 2 14.5
c4 24 10.333 49.333 19 76c26 86 62 155.333 108 208c33.333 38 66.666 60.667 99.999 68c23.333 6.66699 46 5.66699 68 -3c4.66699 9.33301 11 22.666 19 39.999c2 4.66699 5.5 6.16699 10.5 4.5s7.16699 -5.16699 6.5 -10.5l1 -1c-2.66699 -6.66699 -6.66699 -22 -12 -46
c7.33301 -4 15 -10 23 -18c4 -4 4.16699 -8 0.5 -12s-7.5 -4.66699 -11.5 -2l-8 5l-8 5h-1l-21 -93c-20.667 -94 -37.334 -174 -50.001 -240zM177.002 336c44.667 76 80.668 143.999 108.001 203.999c0.666992 2 2 4.66699 4 8c-44.667 10 -90.667 -10.667 -138 -62
c-66 -73.333 -109.667 -162.666 -131 -267.999c-0.666992 -4 -1.33398 -8.33301 -2.00098 -13s-1.66699 -11.167 -3 -19.5s-2.16602 -16.166 -2.49902 -23.499s-0.333008 -14.333 0 -21s1.33301 -11.834 3 -15.501s4.16699 -5.16699 7.5 -4.5
c5.33301 2 14.666 9.66699 27.999 23c12.667 13.333 28 33.333 46 60c22 33.333 48.667 77.333 80 132zM225.003 -216.001c26 38 43.501 88.332 52.501 150.999s7.16699 124.334 -5.5 185.001c-5.33301 22 -13.333 44 -24 66c-26 -138 -43 -242.667 -51 -314
c-6.66699 -72 -2.33398 -106 12.999 -102c4 1.33301 9 6 15 14z" />
    <glyph glyph-name="R" unicode="R" horiz-adv-x="426" 
d="M68 654l-2.00098 0.000976562c-1.33301 0 -2.66602 0.666992 -3.99902 2s-1.83301 2.83301 -1.5 4.5s1.5 2.83398 3.5 3.50098h2h2c2 0 3.66699 -0.166992 5 -0.5s2.66602 -1 3.99902 -2s2.5 -2.33301 3.5 -4s1.83301 -3.16699 2.5 -4.5
s1.33398 -3.16602 2.00098 -5.49902s1.33398 -4.33301 2.00098 -6s1.16699 -3.66699 1.5 -6s0.5 -4.33301 0.5 -6s0.166992 -3.66699 0.5 -6s0.833008 -3.83301 1.5 -4.5c1.33301 -15.333 2 -32.333 2 -51c0 -67.333 -6.66699 -156 -20 -266
c17.333 80 38.166 148.5 62.499 205.5s57.166 102.5 98.499 136.5c5.33301 5.33301 11.833 9.66602 19.5 12.999s15.834 4.66602 24.501 3.99902s15.667 -4.33398 21 -11.001c25.333 -24.667 30.333 -75.334 15 -152.001
c-17.333 -91.333 -57.666 -168.666 -120.999 -231.999c-20 -20 -42.333 -37.333 -67 -52c2 -7.33301 4 -14 6 -20l10 -22c22 -47.333 51 -71 87 -71c18 0 41.333 5.33301 70 16c49.333 20.667 92.333 44 129 70c2.66699 2 5.66699 0.666992 9 -4
c1.33301 -2.66699 1 -4.66699 -1 -6c-1.33301 -0.666992 -6.66602 -3.83398 -15.999 -9.50098s-15 -9.16699 -17 -10.5s-7.33301 -4.5 -16 -9.5l-17.5 -10l-17 -9c-8.33301 -4.33301 -14.666 -7.33301 -18.999 -9s-10.166 -4.16699 -17.499 -7.5
s-13.833 -5.83301 -19.5 -7.5l-19.5 -5.5c-7.33301 -2 -14.333 -3.66699 -21 -5c-11.333 -1.33301 -19.666 -2 -24.999 -2c-8.66699 0 -16.834 1 -24.501 3s-14.5 4.66699 -20.5 8s-11.667 7.66602 -17 12.999s-9.83301 10.666 -13.5 15.999s-7.5 11.5 -11.5 18.5
s-7.33301 13.333 -10 19s-5.33398 12.167 -8.00098 19.5c-0.666992 0.666992 -1.33398 1.83398 -2.00098 3.50098l-2 5c-0.666992 1.66699 -1.33398 3.66699 -2.00098 6s-1.16699 4.33301 -1.5 6s-0.333008 3.33398 0 5.00098s0.833008 2.83398 1.5 3.50098
c93.333 59.333 154 152.666 182 279.999c11.333 55.333 11.333 97 0 125c-2 7.33301 -5.16699 13 -9.5 17s-8.83301 6.33301 -13.5 7s-9.83398 0 -15.501 -2s-11 -4.5 -16 -7.5s-10 -6.66699 -15 -11s-9.16699 -8.16602 -12.5 -11.499l-9 -9
c-20.667 -22.667 -39 -49 -55 -79s-29.833 -64.333 -41.5 -103s-20.834 -73 -27.501 -103s-14.334 -68.333 -23.001 -115c-10.667 -82 -27 -197.333 -49 -346c0 -4.66699 -2.33301 -6.66699 -7 -6c-4 0.666992 -6 3.33398 -6 8.00098l-1 -1h-1l40 303l12 100
c8.66699 66 15.667 133.333 21 202l4 50c2.66699 34 3.33398 67.667 2.00098 101c-1.33301 19.333 -4.66602 31.666 -9.99902 36.999h-1z" />
    </font>
</defs>
</svg>
